.
Авторизация | Регистрация
Хочешь лучшие торренты? Добавь свой email!
Добавить

Торрент скачать бесплатно

» » Снайпер: Идеальное убийство / Sniper: Ultimate Kill (2017) BDRip торрент скачать бесплатно




    Снайпер: Идеальное убийство / Sniper: Ultimate Kill (2017) BDRip торрент скачать бесплатно

    Опубликовал: Админ | Дата: 8-10-2017, 05:00 | Просмотров: 2

    Производство: США | Destination Films, Mandalay Pictures
    Жанр: боевик, триллер, драма
    Режиссер: Клаудио Фах

    Актеры
    Билли Зейн, Том Беренджер, Денай Гарсиа, Джо Ландо, Хуан Себастьян Калеро, Чад Коллинз, Хуан Пабло Гамбоа, Фелипе Калеро, Лучо Веласко.

    Описание

    Глава колумбийского наркокартеля объединят в своих руках все каналы доставки наркотиков в США. Его врагов уничтожает суперснайпер по кличке Дьявол. Агентство по борьбе с наркотиками отправляет на борьбу с ними спецагента под прикрытием, опытного снайпера из морской разведки.

    Рейтинг MPAA: R (лицам до 17 лет обязательно присутствие взрослого)
    Дата мировой премьеры: 3 октября 2017
    Релиз от: MegaPeer
    Продолжительность: 01: 33: 18
    Качество видео: BDRip
    Перевод: Профессиональный (многоголосый, закадровый) (Лицензия Blu-ray EUR)
    Субтитры: Отсутствуют
    Видео: Xvid, 720x304, ~1784 kbps
    Аудио: AC3, 6 ch, 448 kbps

    Общее
    Полное имя : D: \Sniper.Ultimate.Kill.2017.BDRip.NNM-CLUB.avi
    Формат : AVI
    Формат/Информация : Audio Video Interleave
    Размер файла : 1, 46 Гбайт
    Продолжительность : 1 ч. 33 м.
    Общий поток : 2241 Кбит/сек
    Программа кодирования : VirtualDubMod 1.5.10.2 (build 2540/release)
    Библиотека кодирования : VirtualDubMod build 2540/release
    Видео
    Идентификатор : 0
    Формат : MPEG-4 Visual
    Профиль формата : Advanced Simple@L5
    Параметр BVOP формата : 1
    Параметр QPel формата : Нет
    Параметр GMC формата : Без точки перехода
    Параметр матрицы формата : Выборочная
    Идентификатор кодека : XVID
    Идентификатор кодека/Подсказка : XviD
    Продолжительность : 1 ч. 33 м.
    Битрейт : 1784 Кбит/сек
    Ширина : 720 пикселей
    Высота : 304 пикселя
    Соотношение сторон : 2, 35: 1
    Частота кадров : 23, 976 (24000/1001) кадра/сек
    Цветовое пространство : YUV
    Субдискретизация насыщенности : 4: 2: 0
    Битовая глубина : 8 бит
    Тип развёртки : Прогрессивная
    Метод сжатия : С потерями
    Бит/(Пиксели*Кадры) : 0.340
    Размер потока : 1, 16 Гбайт (80%)
    Библиотека кодирования : XviD 73
    Аудио
    Идентификатор : 1
    Формат : AC-3
    Формат/Информация : Audio Coding 3
    Расширение режима : CM (complete main)
    Параметр Endianness формата : Big
    Идентификатор кодека : 2000
    Продолжительность : 1 ч. 33 м.
    Вид битрейта : Постоянный
    Битрейт : 448 Кбит/сек
    Каналы : 6 каналов
    Расположение каналов : Front: L C R, Side: L R, LFE
    Частота : 48, 0 КГц
    Частота кадров : 31, 250 кадров/сек (1536 spf)
    Метод сжатия : С потерями
    Размер потока : 299 Мбайт (20%)
    Выравнивание : Разделение по промежуткам
    Продолжительность промежутка : 42 мс. (1, 00 видеокадр)
    Время предзагрузки промежутка : 500 мс.

    Скриншоты для ознакомления


    Все одноименные релизы в Клубе
    Время раздачи: 24/7 до 10 скачавших

    Онлайн видео Снайпер: Идеальное убийство



    Снайпер: Идеальное убийство/Sniper: Ultimate Kill (2017) BDRip
    загрузка...
    Рейтинг →
     (голосов: 1, оценка 5/5, голосовать можно 1 раз )

    Другие торренты по теме:

  • Снайпер: Идеальное убийство / Sniper: Ultimate Kill (2017) WEB-DLRip [H.264 / 720p-LQ] [Line] [AD]
  • Снайпер: Идеальное убийство / Sniper: Ultimate Kill (2017) WEB-DLRip [H.264 / 1080p-LQ] [Line] [AD]
  • Снайпер: Идеальное убийство / Sniper: Ultimate Kill (2017) WEB-DLRip [Line] [AD]
  • Снайпер: Идеальное убийство / Sniper: Ultimate Kill (2017) BDRip [H.264 / 720p]
  • Снайпер: Идеальное убийство / Sniper: Ultimate Kill (2017) Blu-ray [H.264 / 1080p]
  • Снайпер: Идеальное убийство / Sniper: Ultimate Kill (2017) BDRip [H.264 / 1080p]
  • Снайпер: Идеальное убийство / Sniper: Ultimate Kill (2017) HDRip [H.264] [MP4|1280x534]
  • Снайпер: Идеальное убийство / Sniper: Ultimate Kill (2017) HDRip [H.264] [MP4|1920x800]


    • Комментарии (0):

      Информация

      Информация

        Посетители, находящиеся в группе Гости, не могут оставлять комментарии в данной новости.

        ↓ Меню




        ↓ Опрос

        Вы добавили сайт в закладки?
        Да
        Нет


        Top 10 за месяц (Фильмы)