.
Авторизация | Регистрация
Хочешь лучшие торренты? Добавь свой email!
Добавить

Торрент скачать бесплатно

» » Человек-паук: Возвращение домой / Spider-Man: Homecoming (2017) BDRip торрент скачать бесплатно




    Человек-паук: Возвращение домой / Spider-Man: Homecoming (2017) BDRip торрент скачать бесплатно

    Опубликовал: Админ | Дата: 5-10-2017, 05:00 | Просмотров: 9

    Производство: США, Columbia Pictures, Marvel Studios Inc., Pascal Pictures
    Жанр: Фантастика, Боевик, Приключения
    Режиссер: Джон Уоттс
    Продюсер: Виктория Алонсо, Ави Арад, Митчелл Белл

    Актеры
    Том Холланд (II), Роберт Дауни мл., Майкл Китон, Мариса Томей, Джон Фавро, Джейкоб Баталон, Зендея, Лора Хэрриер, Тони Револори, Дональд Гловер

    Описание

    После исторической встречи с командой Мстителей Питер Паркер возвращается домой, стараясь зажить обычной жизнью под опекой своей тёти Мэй. Но теперь за Питером приглядывает ещё кое-что… Тони Старк видел Человека-Паука в деле и должен стать его наставником. Когда новый злодей Стервятник угрожает уничтожить всё, что дорого Питеру, приходит время доказать всем, что такое настоящий супергерой.

    Возраст: 16+ (зрителям, достигшим 16 лет)
    Рейтинг MPAA: PG-13 (детям до 13 лет просмотр нежелателен)
    Дата мировой премьеры: 8 июня 2017
    Дата российской премьеры: 6 июля 2017, WDSSPR 3D
    Продолжительность: 02: 13: 28
    Качество видео: BDRip
    Перевод: Дублированный (iTunes)
    Субтитры: отсутствуют.
    Видео: Xvid, 720х304, ~1170 Kbps
    Аудио: AC3, 6 ch, 384 Kbps

    PaUkk.DoMoY.2017.D.BDRip.1.46Gb.avi
    Формат : AVI
    Формат/Информация : Audio Video Interleave
    Размер файла : 1, 46 Гбайт
    Продолжительность : 2 ч. 13 м.
    Общий поток : 1563 Кбит/сек
    Программа кодирования : VirtualDubMod 1.5.10.2 (build 2540/release)
    Библиотека кодирования : VirtualDubMod build 2540/release
    Видео
    Идентификатор : 0
    Формат : MPEG-4 Visual
    Профиль формата : Advanced Simple@L5
    Настройки формата : BVOP2
    Параметр BVOP формата : 2
    Параметр QPel формата : Нет
    Параметр GMC формата : Без точки перехода
    Параметр матрицы формата : Default (MPEG)
    Идентификатор кодека : XVID
    Идентификатор кодека/Подсказка : XviD
    Продолжительность : 2 ч. 13 м.
    Битрейт : 1170 Кбит/сек
    Ширина : 720 пикселей
    Высота : 304 пикселя
    Соотношение сторон : 2, 35: 1
    Частота кадров : 23, 976 (24000/1001) кадра/сек
    Цветовое пространство : YUV
    Субдискретизация насыщенности : 4: 2: 0
    Битовая глубина : 8 бит
    Тип развёртки : Прогрессивная
    Метод сжатия : С потерями
    Бит/(Пиксели*Кадры) : 0.223
    Размер потока : 1, 09 Гбайт (75%)
    Библиотека кодирования : XviD 1.2.1 (UTC 2008-12-04)
    Аудио
    Идентификатор : 1
    Формат : AC-3
    Формат/Информация : Audio Coding 3
    Параметр Endianness формата : Big
    Идентификатор кодека : 2000
    Продолжительность : 2 ч. 13 м.
    Вид битрейта : Постоянный
    Битрейт : 384 Кбит/сек
    Каналы : 6 каналов
    Расположение каналов : Front: L C R, Side: L R, LFE
    Частота : 48, 0 КГц
    Частота кадров : 31, 250 кадров/сек (1536 SPF)
    Битовая глубина : 16 бит
    Метод сжатия : С потерями
    Размер потока : 367 Мбайт (25%)
    Выравнивание : Разделение по промежуткам
    Продолжительность промежутка : 42 мс. (1, 00 видеокадр)
    Время предзагрузки промежутка : 500 мс.
    ServiceKind/String : Complete Main

    Скриншоты для ознакомления



    Все одноименные релизы в Клубе
    Время раздачи: 24/7 (до появления первых 3-5 скачавших)

    Онлайн видео Человек-паук: Возвращение домой



    Человек-паук: Возвращение домой/Spider-Man: Homecoming (2017) BDRip
    загрузка...
    Рейтинг →
     (голосов: 1, оценка 3/5, голосовать можно 1 раз )

    Другие торренты по теме:

  • Человек-паук: Возвращение домой / Spider-Man: Homecoming (2017) WEBRip [H.264 / 1080p] [Трейлер]
  • Человек-паук: Возвращение домой / Spider-Man: Homecoming (2017) CAMRip [AD]
  • Человек-паук: Возвращение домой / Spider-Man: Homecoming (2017) CamRip [AD]
  • Человек-паук: Возвращение домой / Spider-Man: Homecoming (2017) TS [H.264 / 720p-LQ] [Звук с TS] [AD]
  • Человек-паук: Возвращение домой / Spider-Man: Homecoming (2017) WEB-DLRip [H.264 / 720p-LQ] [AD]
  • Человек-паук: Возвращение домой / Spider-Man: Homecoming (2017) WEB-DLRip [H.264 / 1080p-LQ] [Line] [AD]
  • Человек-паук: Возвращение домой / Spider-Man: Homecoming (2017) WEB-DLRip
  • Человек-паук: Возвращение домой / Spider-Man: Homecoming (2017) WEB-DL [H.264 / 1080p-LQ]


    • Комментарии (0):

      Информация

      Информация

        Посетители, находящиеся в группе Гости, не могут оставлять комментарии в данной новости.

        ↓ Меню




        ↓ Опрос

        Вы добавили сайт в закладки?
        Да
        Нет


        Top 10 за месяц (Фильмы)