.
Авторизация | Регистрация
Хочешь лучшие торренты? Добавь свой email!
Добавить

Торрент скачать бесплатно

» » Осенний марафон (1979) WEB-DL [H.264 / 1080p-LQ] торрент скачать бесплатно




    Осенний марафон (1979) WEB-DL [H.264 / 1080p-LQ] торрент скачать бесплатно

    Опубликовал: Админ | Дата: 1-10-2017, 05:00 | Просмотров: 8

    Производство: СССР, Мосфильм
    Жанр: Комедия, Мелодрама
    Режиссер: Георгий Данелия

    Актеры
    Олег Басилашвили, Наталья Гундарева, Марина Неелова, Евгений Леонов, Норберт Кухинке, Николай Крючков, Галина Волчек, Борислав Брондуков, Владимир Грамматиков, Никита Подгорный

    Описание

    У талантливого педагога и переводчика Бузыкина нерешительный характер. Он не может оставить жену и уйти к любимой женщине, не может отказать эксплуатирующей его талант сокурснице, терпит посещения доморощенного философа-алкаша, а когда, наконец, решается на смелый шаг — терпит фиаско, так как по природе мягок и податлив, как воск.

    Возраст: 12+ (зрителям, достигшим 12 лет)
    Релиз от: smithland
    Продолжительность: 01: 28: 45
    Качество видео: WEB-DL
    Видео: AVC/H.264, 1920х1080, ~5567 kb/s
    Аудио: AC3, 2 ch, 224 kb/s

    General
    Unique ID : 246562018986739210034527062727279729589 (0xB97E1E17DB222E01A4FE3D48B7635BB5)
    Complete name : Осенний марафон.mkv
    Format : Matroska
    Format version : Version 4/Version 2
    File size : 3.59 GiB
    Duration : 1 h 28 min
    Overall bit rate : 5 793 kb/s
    Movie name : Осенний марафон (rip by smithland)
    Encoded date : UTC 2017-09-29 16: 30: 13
    Writing application : mkvmerge v10.0.0 (\'To Drown In You\') 64bit
    Writing library : libebml v1.3.4 + libmatroska v1.4.5
    Cover : Yes
    Attachments : COVER.jpg
    Video
    ID : 1
    Format : AVC
    Format/Info : Advanced Video Codec
    Format profile : High@L4.1
    Format settings, CABAC : Yes
    Format settings, ReFrames : 3 frames
    Format settings, GOP : M=4, N=24
    Codec ID : V_MPEG4/ISO/AVC
    Duration : 1 h 28 min
    Bit rate : 5 567 kb/s
    Width : 1 920 pixels
    Height : 1 080 pixels
    Display aspect ratio : 16: 9
    Frame rate mode : Constant
    Frame rate : 24.000 FPS
    Color space : YUV
    Chroma subsampling : 4: 2: 0
    Bit depth : 8 bits
    Scan type : Progressive
    Bits/(Pixel*Frame) : 0.112
    Stream size : 3.45 GiB (96%)
    Language : Russian
    Default : Yes
    Forced : Yes
    Audio
    ID : 2
    Format : AC-3
    Format/Info : Audio Coding 3
    Mode extension : CM (complete main)
    Format settings, Endianness : Big
    Codec ID : A_AC3
    Duration : 1 h 28 min
    Bit rate mode : Constant
    Bit rate : 224 kb/s
    Channel(s) : 2 channels
    Channel positions : Front: L R
    Sampling rate : 48.0 kHz
    Frame rate : 31.250 FPS (1536 spf)
    Bit depth : 16 bits
    Compression mode : Lossy
    Stream size : 142 MiB (4%)
    Language : Russian
    Default : Yes
    Forced : Yes

    Скриншоты для ознакомления




    Все одноименные релизы в Клубе
    Время раздачи: 12: 00-22: 00 (до появления первых 3-5 скачавших)

    Осенний марафон (1979) WEB-DL [H.264/1080p-LQ]
    загрузка...
    Рейтинг →
     (голосов: 1, оценка 3/5, голосовать можно 1 раз )

    Другие торренты по теме:

  • VA - Осенний марафон № 190 / Видеоклипы (Осенний Листопад Русских Хитов) (2015) WEBRip [H.264 / 1080p-LQ] скачать через торрент бесплатно
  • VA - Осенний марафон № 134 / Видеоклипы (Популярный Зарубежный Хит) (2014) [H.264 / 1080p-LQ] WEBRip скачать через торрент бесплатно
  • VA - Осенний марафон № 136 / Видеоклипы (Самые Танцевальные Хиты) (2014) WEBRip [H.264 / 1080p-LQ] скачать через торрент бесплатно
  • VA - Осенний марафон № 137 / Видеоклипы (Русский Поп Коктейль) (2014) [H.264 / 1080p-LQ] WEBRip
  • VA - Осенний марафон № 138 / Видеоклипы (Популярный Зарубежный Хит) (2014) [H.264 / 1080p-LQ] WEBRip
  • VA - Осенний марафон № 141 / Видеоклипы (Презент Зарубежных Новинок) (2014) [H.264 / 1080p-LQ] WEBRip скачать через торрент бесплатно
  • VA - Осенний марафон № 142 / Видеоклипы (Новые Лучшие Зарубежные Клипы) (2014) [H.264 / 1080p-LQ] WEBRip
  • VA - Осенний марафон № 143 / Видеоклипы (Презент Зарубежных Новинок) (2014) [H.264 / 1080p-LQ] WEBRip


    • Комментарии (0):

      Информация

      Информация

        Посетители, находящиеся в группе Гости, не могут оставлять комментарии в данной новости.

        ↓ Меню




        ↓ Опрос

        Вы добавили сайт в закладки?
        Да
        Нет


        Top 10 за месяц (Фильмы)