.
Авторизация | Регистрация
Хочешь лучшие торренты? Добавь свой email!
Добавить

Торрент скачать бесплатно

» » Леди в фургоне / The Lady in the Van (2015) DVD5 торрент скачать бесплатно




    Леди в фургоне / The Lady in the Van (2015) DVD5 торрент скачать бесплатно

    Опубликовал: Админ | Дата: 25-09-2017, 05:00 | Просмотров: 0

    Производство: Великобритания/Sony Classics, BBC Films, TriStar Productions
    Жанр: Драма, комедия, биография
    Режиссер: Николас Хайтнер
    Продюсер: Николас Хайтнер, Дэмиэн Джонс, Кевин Лоудер

    Актеры
    Мэгги Смит, Джим Бродбент, Клер Хэммонд, Джордж Фентон, Алекс Дженнингс, Джейми Паркер, Дебора Файндлей, Роджер Аллам, Richard Griffiths

    Описание

    История об эксцентричной лондонской старушке. Мэри Шеперд — бездомная леди, жившая в раздолбанном желтом фургоне и однажды припарковавшаяся напротив кэмденской квартиры Беннетта. Обещавшая не задерживаться больше трех месяцев, бабуля прожила под окнами писателя 15 лет, превратившись в любимицу района, местную достопримечательность и, в конечном счете, героиню пьесы Беннета 1999 года.

    Рейтинг MPAA: PG-13 (детям до 13 лет просмотр нежелателен)
    Дата мировой премьеры: 12 сентября 2015

    Продолжительность: 01: 39: 42
    Качество видео: DVD5
    Перевод: Многоголосый закадровый (лицензия)
    Субтитры: Русские, английские, арабские, болгарские, хорватские, чешские, эстонские, иврит, венгерские, исландские, польские, португальские, румынские, сербские, словацкие, словенские, турецкие
    Видео: MPEG-2, 720x576@1024x576 (PAL 16: 9), ~5200 Kbps
    Аудио 1: AC3 5.1, 448 Kbps (Английский - оригинал)
    Аудио 2: AC3 5.1, 384 Kbps (Русский - многоголосый закадровый)
    Код: выделить все
    Title: The Lady in the Van (2015) DVD5
    Size: 4.25 Gb ( 4 460 454, 00 KBytes ) - DVD-5
    Enabled regions: 1, 2, 3, 4, 5, 6, 7, 8
    VTS_01 :
    Play Length: 01:39:42
    Video: PAL 16:9 (720x576) VBR, Auto Letterboxed
    Audio:
    English (Dolby AC3, 6 ch)
    Russian (Dolby AC3, 6 ch)
    Subtitles:
    English
    Arabic
    Bulgarian
    Hrvatski
    Czech(Ceske)
    Estonian
    Hebrew
    Magyar
    Islenska
    Polish
    Portugues
    Romanian
    Russian
    Serbian
    Slovak
    Slovenian
    Turkish
    English
    * Menus Information *
    VIDEO_TS Menu
    Video:
    PAL 16:9 (720x576) VBR
    Auto PanScan
    English Language Unit :
    Title Menu
    VTS_01 Menu
    Video:
    PAL 16:9 (720x576) VBR
    Auto PanScan
    Audio:
    Not specified (Dolby AC3, 2 ch)
    English Language Unit :
    Root Menu
    Chapter (PTT) Menu
    Код: выделить все
    Общее
    Полное имя : G:ВидеоThe Lady in the Van (2015) DVD5VIDEO_TSVTS_01_1.VOB
    Формат : MPEG-PS
    Размер файла : 1024 Мбайт
    Продолжительность : 23 м.
    Режим общего битрейта : Переменный
    Общий поток : 6144 Кбит/сек
    Видео
    Идентификатор : 224 (0xE0)
    Формат : MPEG Video
    Версия формата : Version 2
    Профиль формата : Main@Main
    Параметр BVOP формата : Да
    Параметр матрицы формата : Выборочная
    Параметр GOP формата : Variable
    Структура изображения : Frame
    Продолжительность : 23 м.
    Вид битрейта : Переменный
    Битрейт : 5189 Кбит/сек
    Максимальный битрейт : 9800 Кбит/сек
    Ширина : 720 пикселей
    Высота : 576 пикселей
    Соотношение сторон : 16:9
    Частота кадров : 25, 000 кадров/сек
    Стандарт вещания : PAL
    Цветовое пространство : YUV
    Субдискретизация насыщенности : 4:2:0
    Битовая глубина : 8 бит
    Тип развёртки : Чересстрочная
    Порядок развёртки : Верхнее поле первое
    Метод сжатия : С потерями
    Бит/(Пиксели*Кадры) : 0.501
    Временной код первого кадра : 00:59:58:00
    Оригинал временного кода : Group of pictures t_head
    Размер потока : 865 Мбайт (84%)
    Аудио #1
    Идентификатор : 189 (0xBD)-128 (0x80)
    Формат : AC-3
    Формат/Информация : Audio Coding 3
    Расширение режима : CM (complete main)
    Параметр Endianness формата : Big
    Режим смешивания : DVD-Video
    Продолжительность : 23 м.
    Вид битрейта : Постоянный
    Битрейт : 448 Кбит/сек
    Каналы : 6 каналов
    Расположение каналов : Front: L C R, Side: L R, LFE
    Частота : 48, 0 КГц
    Частота кадров : 31, 250 кадров/сек (1536 spf)
    Метод сжатия : С потерями
    Размер потока : 74, 6 Мбайт (7%)
    Аудио #2
    Идентификатор : 189 (0xBD)-132 (0x84)
    Формат : AC-3
    Формат/Информация : Audio Coding 3
    Расширение режима : CM (complete main)
    Параметр Endianness формата : Big
    Режим смешивания : DVD-Video
    Продолжительность : 23 м.
    Вид битрейта : Постоянный
    Битрейт : 384 Кбит/сек
    Каналы : 6 каналов
    Расположение каналов : Front: L C R, Side: L R, LFE
    Частота : 48, 0 КГц
    Частота кадров : 31, 250 кадров/сек (1536 spf)
    Метод сжатия : С потерями
    Размер потока : 64, 0 Мбайт (6%)
    Текст
    Идентификатор : 189 (0xBD)-49 (0x31)
    Формат : RLE
    Формат/Информация : Run-length encoding
    Режим смешивания : DVD-Video
    Продолжительность : 23 м.
    Задержка видео : 11 с.
    Меню
    Продолжительность : 23 м.


    Онлайн видео Леди в фургоне



    Леди в фургоне/The Lady in the Van (2015) DVD5
    загрузка...
    Рейтинг →
     (голосов: 1, оценка 3/5, голосовать можно 1 раз )

    Другие торренты по теме:

  • Леди в фургоне / The Lady in the Van (2015) BDRemux [H.264 / 1080p] [EN / EN Sub]
  • Леди в фургоне / The Lady in the Van (2015) BDRip
  • Леди в фургоне / The Lady in the Van (2015) HDRip
  • Леди в фургоне / The Lady in the Van (2015) BDRip [H.264 / 1080p] [Fr, EN / Fr Sub]
  • Леди в фургоне / The Lady in the Van (2015) BDRip [H.264 / 1080p]
  • Леди в фургоне / The Lady in the Van (2015) DVD9


    • Комментарии (0):

      Информация

      Информация

        Посетители, находящиеся в группе Гости, не могут оставлять комментарии в данной новости.

        ↓ Меню




        ↓ Опрос

        Вы добавили сайт в закладки?
        Да
        Нет


        Top 10 за месяц (Фильмы)