.
Авторизация | Регистрация
Хочешь лучшие торренты? Добавь свой email!
Добавить

Торрент скачать бесплатно

» » Дом / The House (2017) WEB-DLRip [MVO] [AD] торрент скачать бесплатно




    Дом / The House (2017) WEB-DLRip [MVO] [AD] торрент скачать бесплатно

    Опубликовал: Админ | Дата: 22-09-2017, 05:00 | Просмотров: 1

    Производство: США
    Жанр: Комедия
    Режиссер: Эндрю Дж. Коэн

    Актеры
    Уилл Феррелл, Эми Полер, Джейсон Манцукас, Райан Симпкинс, Ник Кролл, Эллисон Толман, Роб Хюбель, Кристина Оффли, Джесси Эннис, Рори Сковел

    Описание

    Скотт и Кейт души не чают в своей дочери Алекс. Особенно они радовались, когда девушку приняли в университет её мечты. Но городской совет на деньги, обещанные родителям на обучение Алекс, решил построить общественный бассейн. Приняв решение быть хорошими родителями любой ценой, парочка поддается на уговоры соседа-игромана устроить в его доме нелегальное казино с рулеткой и кордебалетом.

    Возраст: 16+ (зрителям, достигшим 16 лет)
    Рейтинг MPAA: R (лицам до 17 лет обязательно присутствие взрослого)
    Дата мировой премьеры: 29 июня 2017
    Продолжительность: 01: 28: 17
    Качество видео: WEB-DLRip
    Перевод: Любительский многоголосый (КОЛОБОК)
    Субтитры: Отсутствуют
    Реклама: Присутствуют вставки голосовой и текстовой рекламы!
    Видео: MPEG4, XviD, 720x304 (2.35: 1), 23.976 fps, 1 750 Kbps (0.333 bit/pixel)
    Аудио: AC-3, 48.0 KHz, 2 ch, 384 Kbps, CBR

    Общее
    Полное имя : D: NNMДомDom 2017 WEB-DLRip.avi
    Формат : AVI
    Формат/Информация : Audio Video Interleave
    Размер файла : 1, 32 Гбайт
    Продолжительность : 1 ч. 28 м.
    Общий поток : 2143 Кбит/сек
    Программа кодирования : VirtualDubMod 1.5.10.3 (build 2550/release)
    Библиотека кодирования : VirtualDubMod build 2550/release
    Видео
    Идентификатор : 0
    Формат : MPEG-4 Visual
    Профиль формата : Advanced Simple@L5
    Параметр BVOP формата : 2
    Параметр QPel формата : Нет
    Параметр GMC формата : Без точки перехода
    Параметр матрицы формата : Default (MPEG)
    Идентификатор кодека : XVID
    Идентификатор кодека/Подсказка : XviD
    Продолжительность : 1 ч. 28 м.
    Битрейт : 1750 Кбит/сек
    Ширина : 720 пикселей
    Высота : 304 пикселя
    Соотношение сторон : 2, 35: 1
    Частота кадров : 23, 976 (24000/1001) кадра/сек
    Цветовое пространство : YUV
    Субдискретизация насыщенности : 4: 2: 0
    Битовая глубина : 8 бит
    Тип развёртки : Прогрессивная
    Метод сжатия : С потерями
    Бит/(Пиксели*Кадры) : 0.333
    Размер потока : 1, 08 Гбайт (82%)
    Библиотека кодирования : XviD 1.2.1 (UTC 2008-12-04)
    Аудио
    Идентификатор : 1
    Формат : AC-3
    Формат/Информация : Audio Coding 3
    Расширение режима : CM (complete main)
    Параметр Endianness формата : Big
    Идентификатор кодека : 2000
    Продолжительность : 1 ч. 28 м.
    Вид битрейта : Постоянный
    Битрейт : 384 Кбит/сек
    Каналы : 2 канала
    Расположение каналов : Front: L R
    Частота : 48, 0 КГц
    Частота кадров : 31, 250 кадров/сек (1536 spf)
    Битовая глубина : 16 бит
    Метод сжатия : С потерями
    Задержка видео : 12 мс.
    Размер потока : 242 Мбайт (18%)
    Выравнивание : Разделение по промежуткам
    Продолжительность промежутка : 42 мс. (1, 00 видеокадр)
    Время предзагрузки промежутка : 500 мс.

    Скриншоты для ознакомления



    Все релизы фильма Дом на NNM-Club
    Время раздачи: Круглосуточно до 10 скачавших

    Онлайн видео Дом



    Дом/The House (2017) WEB-DLRip [MVO] [AD]
    загрузка...
    Рейтинг →
     (голосов: 1, оценка 5/5, голосовать можно 1 раз )

    Другие торренты по теме:

  • Призрак дома Редклифф / Алтарь / The haunting of Radcliffe house / Altar (2014) WEB-DLRip
  • Крутой и цыпочки / Мужчина в доме / Man of the House (2005) WEB-DLRip скачать через торрент бесплатно
  • Бабушкин дом / At Grannys House (2015) WEB-DLRip
  • Небольшое привидение: Одна ночь в проклятом доме / Mostly Ghostly 3: One Night in Doom House (2016) WEB-DLRip
  • Небольшое привидение: Одна ночь в проклятом доме / Mostly Ghostly 3: One Night in Doom House (2016) WEB-DLRip
  • Дом колдуна / House of the Witchdoctor (2013) WEB-DLRip
  • Из дома на Уиллоу-Стрит / From a House on Willow Street (2016) WEB-DLRip
  • Склеп / Скотобойня / The Charnel House (2016) WEB-DLRip


    • Комментарии (0):

      Информация

      Информация

        Посетители, находящиеся в группе Гости, не могут оставлять комментарии в данной новости.

        ↓ Меню




        ↓ Опрос

        Вы добавили сайт в закладки?
        Да
        Нет


        Top 10 за месяц (Фильмы)