.
Авторизация | Регистрация
Хочешь лучшие торренты? Добавь свой email!
Добавить

Торрент скачать бесплатно

» » Завучи / Vice Principals (2017) WEB-DL [H.264 / 1080p-LQ] (сезон 2, серии 1 из 9) OMSKBIRD (обновляемая) [AD] торрент скачать бесплатно




    Завучи / Vice Principals (2017) WEB-DL [H.264 / 1080p-LQ] (сезон 2, серии 1 из 9) OMSKBIRD (обновляемая) [AD] торрент скачать бесплатно

    Опубликовал: Админ | Дата: 21-09-2017, 05:00 | Просмотров: 0

    Производство: США/Home Box Office (HBO)
    Жанр: комедия
    Режиссер: Дэвид Гордон Грин, Дэнни МакБрайд

    Актеры
    Дэнни МакБрайд, Уолтон Гоггинс, Джорджия Кинг, Кимберли Хеберт Грегори и др.

    Описание

    Черная комедия про двух истеричных завучей средней школы, которые по иронии судьбы отвечают за дисциплину и учебный план. После того, как директор уходит на пенсию, завучи затевают эпическую борьбу за трон.

    Продолжительность: ~00: 30: 00 серия
    Качество видео: WEB-DL
    Перевод: Многоголосый закадровый, профессиональный | OMSKBIRD
    Субтитры: английские
    Реклама: присутствуют аудио вставки рекламы
    Видео: AVC/H.264, 1920х1080, ~8930 kbps
    Аудио # 1: AC-3, 6 ch, 384 kbps - русский, многоголосый закадровый
    Аудио # 2: AC-3, 6 ch, 384 kbps - английский

    General
    Unique ID : 234009044631339721061431117558522176754 (0xB00C80AC71CC61F88D5387429299E4F2)
    Complete name : H: Мои ДокументыВидеоРАЗДАЧИЗавучиVice Principals S02 WEB-DL 1080p (OMSKBIRD)Vice Principals S02E01 WEB-DL 1080p (OMSKBIRD).mkv
    Format : Matroska
    Format version : Version 2
    File size : 2.22 GiB
    Duration : 32 min 6 s
    Overall bit rate mode : Variable
    Overall bit rate : 9 895 kb/s
    Encoded date : UTC 2017-09-19 11: 41: 07
    Writing application : mkvmerge v4.0.0 (\'The Stars were mine\') сборка от Jun 6 2010 16: 18: 42
    Writing library : libebml v1.0.0 + libmatroska v1.0.0
    Video
    ID : 1
    Format : AVC
    Format/Info : Advanced Video Codec
    Format profile : High@L4
    Format settings, CABAC : Yes
    Format settings, RefFrames : 4 frames
    Codec ID : V_MPEG4/ISO/AVC
    Duration : 32 min 6 s
    Bit rate mode : Variable
    Bit rate : 8 930 kb/s
    Maximum bit rate : 15.0 Mb/s
    Width : 1 920 pixels
    Height : 1 080 pixels
    Display aspect ratio : 16: 9
    Frame rate mode : Constant
    Frame rate : 23.976 (24000/1001) FPS
    Color space : YUV
    Chroma subsampling : 4: 2: 0
    Bit depth : 8 bits
    Scan type : Progressive
    Bits/(Pixel*Frame) : 0.180
    Stream size : 2.00 GiB (90%)
    Language : English
    Default : No
    Forced : No
    Color range : Limited
    Color primaries : BT.709
    Transfer characteristics : BT.709
    Matrix coefficients : BT.709
    Audio #1
    ID : 2
    Format : AC-3
    Format/Info : Audio Coding 3
    Format settings, Endianness : Big
    Codec ID : A_AC3
    Duration : 32 min 6 s
    Bit rate mode : Constant
    Bit rate : 384 kb/s
    Channel(s) : 6 channels
    Channel positions : Front: L C R, Side: L R, LFE
    Sampling rate : 48.0 kHz
    Frame rate : 31.250 FPS (1536 SPF)
    Bit depth : 16 bits
    Compression mode : Lossy
    Stream size : 88.2 MiB (4%)
    Language : Russian
    Service kind : Complete Main
    Default : Yes
    Forced : No
    Audio #2
    ID : 3
    Format : AC-3
    Format/Info : Audio Coding 3
    Format settings, Endianness : Big
    Codec ID : A_AC3
    Duration : 32 min 6 s
    Bit rate mode : Constant
    Bit rate : 384 kb/s
    Channel(s) : 6 channels
    Channel positions : Front: L C R, Side: L R, LFE
    Sampling rate : 48.0 kHz
    Frame rate : 31.250 FPS (1536 SPF)
    Bit depth : 16 bits
    Compression mode : Lossy
    Stream size : 88.2 MiB (4%)
    Language : English
    Service kind : Complete Main
    Default : No
    Forced : No
    Text
    ID : 4
    Format : UTF-8
    Codec ID : S_TEXT/UTF8
    Codec ID/Info : UTF-8 Plain Text
    Language : English
    Default : No
    Forced : No


    Онлайн видео Завучи



    Завучи/Vice Principals (2017) WEB-DL [H.264/1080p-LQ] (сезон 2, серии 1 из 9) OMSKBIRD (обновляемая) [AD]
    загрузка...
    Рейтинг →
     (голосов: 1, оценка 3/5, голосовать можно 1 раз )

    Другие торренты по теме:

  • Завучи / Vice Principals (2016) HDTVRip [H.264 / 720p-LQ] (сезон 1, серии 1 из 9) Кураж-Бамбей (обновляемая)
  • Завучи / Vice Principals (2016) HDTV [H.264 / 720p-LQ] (сезон 1, серии 1 из 9) OMSKBIRD (обновляемая)
  • Завучи / Vice Principals (2016) HDTVRip (сезон 1, серии 1 из 9) OMSKBIRD (обновляемая)
  • Завучи / Vice Principals (2016) HDTV [H.264 / 720p-LQ] (сезон 1, серии 1 из 9) BaibaKo (обновляемая)
  • Завучи / Vice Principals (2016) HDTVRip [H.264 / 720p-LQ] (сезон 1, серии 1 из 9) NewStudio (обновляемая)
  • Завучи / Vice Principals (2016) HDTV [H.264 / 720p-LQ] (сезон 1, серии 1 из 9) IdeaFilm (обновляемая)
  • Завучи / Vice Principals (2016) HDTVRip (сезон 1, серии 1 из 9) NewStudio (обновляемая)


    • Комментарии (0):

      Информация

      Информация

        Посетители, находящиеся в группе Гости, не могут оставлять комментарии в данной новости.

        ↓ Меню




        ↓ Опрос

        Вы добавили сайт в закладки?
        Да
        Нет


        Top 10 за месяц (Фильмы)