.
Авторизация | Регистрация
Хочешь лучшие торренты? Добавь свой email!
Добавить

Торрент скачать бесплатно

» » Малыш на драйве / Baby Driver (2017) WEB-DLRip [MVO] [AD] торрент скачать бесплатно




    Малыш на драйве / Baby Driver (2017) WEB-DLRip [MVO] [AD] торрент скачать бесплатно

    Опубликовал: Админ | Дата: 17-09-2017, 05:00 | Просмотров: 3

    Производство: Великобритания, США
    Жанр: Боевик, триллер, криминал, музыка
    Режиссер: Эдгар Райт

    Актеры
    Энсел Элгорт, Джон Бернтал, Джон Хэмм, Эйса Гонсалес, Лили Джеймс, Морган Браун, Кевин Спейси, С.Дж. Джонс ...

    Описание

    Молодой парень по прозвищу Малыш обожает стильную музыку, быструю езду и адреналин в крови. Вся его жизнь — это сплошные погони и перестрелки, ведь он работает водителем, который помогает бандитам скрыться с места преступления. Однажды он по-настоящему влюбляется и решает выйти из игры, но сначала ему предстоит выполнить еще одно задание, которое вполне может оказаться последним в его жизни.

    Возраст: 18+ (зрителям, достигшим 18 лет. запрещено для детей)
    Рейтинг MPAA: R (лицам до 17 лет обязательно присутствие взрослого)
    Дата мировой премьеры: 11 марта 2017
    Дата премьеры в России: 24 августа 2017

    Продолжительность: 01: 52: 53
    Качество видео: WEB-DLRip
    Перевод: Любительский (многоголосый, закадровый) | MUZOBOZ
    Субтитры: Отсутствуют
    Реклама: Присутствуют аудио и текстовые вставки рекламы, вставки видео вырезаны.
    Видео: MPEG4, XviD, 720x304 (2.35: 1), 23.976 fps, 1 603 Kbps (0.305 bit/pixel)
    Аудио: AC-3, 48.0 KHz, 2 ch, 192 Kbps, CBR

    Общее
    Полное имя : D: NNMМалыш на драйвеMalysh na drajve 2O17 WEB-DLRip.avi
    Формат : AVI
    Формат/Информация : Audio Video Interleave
    Размер файла : 1, 42 Гбайт
    Продолжительность : 1 ч. 52 м.
    Общий поток : 1805 Кбит/сек
    Программа кодирования : VirtualDubMod 1.5.10.3 (build 2550/release)
    Библиотека кодирования : VirtualDubMod build 2550/release
    Видео
    Идентификатор : 0
    Формат : MPEG-4 Visual
    Профиль формата : Advanced Simple@L5
    Параметр BVOP формата : 2
    Параметр QPel формата : Нет
    Параметр GMC формата : Без точки перехода
    Параметр матрицы формата : Default (MPEG)
    Идентификатор кодека : XVID
    Идентификатор кодека/Подсказка : XviD
    Продолжительность : 1 ч. 52 м.
    Битрейт : 1603 Кбит/сек
    Ширина : 720 пикселей
    Высота : 304 пикселя
    Соотношение сторон : 2, 35: 1
    Частота кадров : 23, 976 (24000/1001) кадра/сек
    Цветовое пространство : YUV
    Субдискретизация насыщенности : 4: 2: 0
    Битовая глубина : 8 бит
    Тип развёртки : Прогрессивная
    Метод сжатия : С потерями
    Бит/(Пиксели*Кадры) : 0.305
    Размер потока : 1, 26 Гбайт (89%)
    Библиотека кодирования : XviD 1.2.1 (UTC 2008-12-04)
    Аудио
    Идентификатор : 1
    Формат : AC-3
    Формат/Информация : Audio Coding 3
    Расширение режима : CM (complete main)
    Параметр Endianness формата : Big
    Идентификатор кодека : 2000
    Продолжительность : 1 ч. 52 м.
    Вид битрейта : Постоянный
    Битрейт : 192 Кбит/сек
    Каналы : 2 канала
    Расположение каналов : Front: L R
    Частота : 48, 0 КГц
    Частота кадров : 31, 250 кадров/сек (1536 spf)
    Битовая глубина : 16 бит
    Метод сжатия : С потерями
    Задержка видео : 28 мс.
    Размер потока : 155 Мбайт (11%)
    Выравнивание : Разделение по промежуткам
    Продолжительность промежутка : 42 мс. (1, 00 видеокадр)
    Время предзагрузки промежутка : 500 мс.

    Скриншоты для ознакомления



    Все релизы фильма Малыш на драйве на NNM-Club
    Время раздачи: Круглосуточно до 10 скачавших

    Онлайн видео Малыш на драйве



    Малыш на драйве/Baby Driver (2017) WEB-DLRip [MVO] [AD]
    загрузка...
    Рейтинг →
     (голосов: 1, оценка 5/5, голосовать можно 1 раз )

    Другие торренты по теме:

  • Малыш на драйве / Baby Driver (2017) TS [AD]
  • VA - Baby Driver / Малыш на драйве (Music from the Motion Picture) (2017) [MP3|320 кб / с]<Soundtrack>
  • VA - Baby Driver / Малыш на драйве (Music from the Motion Picture) (2017) [FLAC|Lossless|WEB-DL|tracks]<Soundtrack>
  • Малыш на драйве / Baby Driver (2017) WEB-DL [H.264 / 1080p-LQ] [EN / EN Sub]
  • Малыш на драйве / Baby Driver (2017) WEB-DL [H.264 / 1080p-LQ] [Звук с TS] [AD]
  • Малыш на драйве / Baby Driver (2017) WEB-DLRip [H.264 / 1080p-LQ] [MVO] [AD]
  • Малыш на драйве / Baby Driver (2017) WEB-DLRip [H.264] [MVO]
  • Малыш на драйве / Baby Driver (2017) WEB-DL [H.264 / 1080p-LQ] [MVO]


    • Комментарии (0):

      Информация

      Информация

        Посетители, находящиеся в группе Гости, не могут оставлять комментарии в данной новости.

        ↓ Меню




        ↓ Опрос

        Вы добавили сайт в закладки?
        Да
        Нет


        Top 10 за месяц (Фильмы)