.
Авторизация | Регистрация
Хочешь лучшие торренты? Добавь свой email!
Добавить

Торрент скачать бесплатно

» » Американская история ужасов / American Horror Story (2017) WEB-DL [H.264 / 1080p-LQ] (сезон 7, серии 1 из 11) OmskBird (обновляемая) [AD] торрент скачать бесплатно




    Американская история ужасов / American Horror Story (2017) WEB-DL [H.264 / 1080p-LQ] (сезон 7, серии 1 из 11) OmskBird (обновляемая) [AD] торрент скачать бесплатно

    Опубликовал: Админ | Дата: 11-09-2017, 05:00 | Просмотров: 1

    Производство: США
    Жанр: Ужасы, Фэнтези, Триллер, Драма
    Режиссер: Брэдли Букер, Майкл Аппендаль, Альфонсо Гомез-Рейон, Майкл Леманн

    Актеры
    Фрэнсис Конрой, Сара Полсон, Таисса Фармига, Дэнис О`Харе, Закари Куинто, Дилан МакДермотт, Джэми Брюэр, Кэти Бэйтс, Джозеф Файнс, Лиззи Брошере и др.

    Описание

    Американская история ужасов, созданная и спродюсированная Райаном Мёрфи и Брэдом Фалчуком, запала в душу огромному числу ценителей жанра хоррор по всему миру. Сюжет сериала строится вокруг классических для американского хоррора тем (дом с привидениями, цирк уродов, психиатрическая лечебница и др.). Каждый сезон любимого сериала посвящен отдельной цепочке событий, от которых бегут мурашки по коже и в страхе замирает сердце. О таком странном сюжете не догадывалась даже Шакира. От чего побегут мурашки и замрет сердце в шестом сезон любимого сериалае сериала, не узнаете, пока не посмотрите.

    Возраст: 18+ (зрителям, достигшим 18 лет. запрещено для детей)
    Релиз от: OmskBird
    Продолжительность: ~00: 42: 00 серия
    Качество видео: WEB-DL
    Перевод: Многоголосый закадровый, профессиональный - OmskBird
    Субтитры: Английские
    Реклама: присутствуют аудио вставки рекламы
    Видео: AVC/H.264, 1920x1080 (16: 9), ~8450 kbps
    Аудио #1: AC3, 6 ch, 640 kbps - русский, многоголосый закадровый
    Аудио #2: AC3, 6 ch, 640 kbps - английский

    General
    Unique ID : 184159345823736980036548128791999700685 (0x8A8BCCC405D39D35AF22315A30DE5ECD)
    Complete name : G: FilmsAmerican.Horror.Story.S07.1080p.WEB-DL.OmskBirdAmerican.Horror.Story.S07E01.1080p.WEB-DL.OmskBird.mkv
    Format : Matroska
    Format version : Version 4/Version 2
    File size : 3.50 GiB
    Duration : 50mn 22s
    Overall bit rate mode : Variable
    Overall bit rate : 9 944 Kbps
    Encoded date : UTC 2017-09-07 03: 35: 08
    Writing application : mkvmerge v15.0.0 (\'Duel with the Devil\') 64-bit
    Writing library : libebml v1.3.5 + libmatroska v1.4.5
    Cover : Yes
    Attachments : small_cover.jpg/small_cover_land.jpg/cover.jpg/cover_land.jpg
    Video
    ID : 1
    Format : AVC
    Format/Info : Advanced Video Codec
    Format profile : High@L4
    Format settings, CABAC : Yes
    Format settings, ReFrames : 4 frames
    Codec ID : V_MPEG4/ISO/AVC
    Duration : 50mn 22s
    Bit rate mode : Variable
    Bit rate : 8 466 Kbps
    Maximum bit rate : 15.0 Mbps
    Width : 1 920 pixels
    Height : 1 080 pixels
    Display aspect ratio : 16: 9
    Frame rate mode : Constant
    Frame rate : 23.976 (24000/1001) fps
    Color space : YUV
    Chroma subsampling : 4: 2: 0
    Bit depth : 8 bits
    Scan type : Progressive
    Bits/(Pixel*Frame) : 0.170
    Stream size : 2.98 GiB (85%)
    Language : English
    Default : Yes
    Forced : No
    Color range : Limited
    Color primaries : BT.709
    Transfer characteristics : BT.709
    Matrix coefficients : BT.709
    Audio #1
    ID : 2
    Format : AC-3
    Format/Info : Audio Coding 3
    Mode extension : CM (complete main)
    Format settings, Endianness : Big
    Codec ID : A_AC3
    Duration : 50mn 22s
    Bit rate mode : Constant
    Bit rate : 640 Kbps
    Channel(s) : 6 channels
    Channel positions : Front: L C R, Side: L R, LFE
    Sampling rate : 48.0 KHz
    Frame rate : 31.250 fps (1536 spf)
    Compression mode : Lossy
    Stream size : 231 MiB (6%)
    Title : OmskBird 5.1
    Language : Russian
    Default : Yes
    Forced : No
    Audio #2
    ID : 3
    Format : AC-3
    Format/Info : Audio Coding 3
    Mode extension : CM (complete main)
    Format settings, Endianness : Big
    Codec ID : A_AC3
    Duration : 50mn 22s
    Bit rate mode : Constant
    Bit rate : 640 Kbps
    Channel(s) : 6 channels
    Channel positions : Front: L C R, Side: L R, LFE
    Sampling rate : 48.0 KHz
    Frame rate : 31.250 fps (1536 spf)
    Compression mode : Lossy
    Stream size : 231 MiB (6%)
    Title : eng
    Language : English
    Default : No
    Forced : No
    Text
    ID : 4
    Format : UTF-8
    Codec ID : S_TEXT/UTF8
    Codec ID/Info : UTF-8 Plain Text
    Title : eng
    Language : English
    Default : No
    Forced : No


    Онлайн видео Американская история ужасов



    Американская история ужасов/American Horror Story (2017) WEB-DL [H.264/1080p-LQ] (сезон 7, серии 1 из 11) OmskBird (обновляемая) [AD]
    загрузка...
    Рейтинг →
     (голосов: 1, оценка 4/5, голосовать можно 1 раз )

    Другие торренты по теме:

  • Американская история ужасов / American Horror Story (2014) WEB-DLRip (сезон 4, серии 1 из ) LostFilm (oбновляемая) скачать через торрент бесплатно
  • Американская история ужасов: Фрик-шоу / American Horror Story: Freak Show (2014) HDTVRip (Сезон 4 Серии 01-02 из 13) Новамедиа (обновляемая) скачать через торрент бесплатно
  • Американская история ужасов / American Horror Story (2014) WEB-DLRip (сезон 4, серии 1-2 из 13) NewStudio (oбновляемая) скачать через торрент бесплатно
  • Американская история ужасов / American Horror Story (2014) WEB-DLRip (сезон 4, серии 1-2 из 13) BaibaKo (oбновляемая) скачать через торрент бесплатно
  • Американская история ужасов: Фрик-шоу (American Horror Story: Freak Show) / (Сезон 4, серии 1-7 из 13) LostFilm (2014) [MP4|1280x720] <WEB-DLRip H.264>
  • Американская история ужасов / American Horror Story (2014) WEB-DL [H.264 / 720p-LQ] (Сезон 4, серии 1-9 из 13) (LostFilm) (обновляемая) скачать через торрент бесплатно
  • Американская история Х / American History X (1998) BDRip [720p] скачать через торрент бесплатно
  • Американская история Х / American History X (1998) BDRip [1080p]


    • Комментарии (0):

      Информация

      Информация

        Посетители, находящиеся в группе Гости, не могут оставлять комментарии в данной новости.

        ↓ Меню




        ↓ Опрос

        Вы добавили сайт в закладки?
        Да
        Нет


        Top 10 за месяц (Фильмы)