.
Авторизация | Регистрация
Хочешь лучшие торренты? Добавь свой email!
Добавить

Торрент скачать бесплатно

» » Стальная звезда / Жестяная звезда / Tin Star (2017) WEBRip [H.264 / 720p-LQ] (сезон 1, серии 1 из 10) Amedia (обновляемая) торрент скачать бесплатно




    Стальная звезда / Жестяная звезда / Tin Star (2017) WEBRip [H.264 / 720p-LQ] (сезон 1, серии 1 из 10) Amedia (обновляемая) торрент скачать бесплатно

    Опубликовал: Админ | Дата: 11-09-2017, 05:00 | Просмотров: 0

    Производство: Великобритания
    Жанр: драма
    Режиссер: Жиль Банньер, Марк Йобст, Грант Харви

    Актеры
    Тим Рот, Кристина Хендрикс, Кристофер Хейердал, Оливер Куперсмит, Линда Бойд, Майк Ковач, Майлс Питерман, Сара Подемски, Райан Кеннеди

    Описание

    История о том, как бывший полицейский детектив Джим Уорт из Лондона вместе с семьёй перебрался в городок у скалистых гор, чтобы возглавить местную полицию. После открытия неподалёку нефтеочистительного завода городок наводнили мигранты, спровоцировав рост преступности, проституции и наркоторговли. Попытки Джима восстановить порядок превратили его жизнь и жизнь его близких в ад, от которого некуда скрыться.

    Дата мировой премьеры: 7 сентября 2017
    Продолжительность: ~00: 45: 00 серия
    Качество видео: WEBRip
    Перевод: Многоголосый закадровый, профессиональный-Amedia
    Видео: AVC/H.264, 1280x720, ~ 6500 Kbps
    Аудио: AC3, 2 ch, 192 Kbps - русский, многоголосый закадровый

    General
    Unique ID : 243507319731727944490726435806012978283 (0xB731CDCABE84AF0CA5F533AA0BEF346B)
    Complete name : F: ФильмTin.Star.s01e01.WEBRip.720p.Amedia.mkv
    Format : Matroska
    Format version : Version 4/Version 2
    File size : 2.02 GiB
    Duration : 43mn 17s
    Overall bit rate : 6 693 Kbps
    Encoded date : UTC 2017-09-08 15: 54: 55
    Writing application : mkvmerge v15.0.0 (\'Duel with the Devil\') 64-bit
    Writing library : libebml v1.3.5 + libmatroska v1.4.5
    Video
    ID : 1
    Format : AVC
    Format/Info : Advanced Video Codec
    Format profile : High@L3.1
    Format settings, CABAC : Yes
    Format settings, ReFrames : 4 frames
    Codec ID : V_MPEG4/ISO/AVC
    Duration : 43mn 16s
    Bit rate : 6 499 Kbps
    Width : 1 280 pixels
    Height : 720 pixels
    Display aspect ratio : 16: 9
    Frame rate mode : Constant
    Frame rate : 19.940 fps
    Color space : YUV
    Chroma subsampling : 4: 2: 0
    Bit depth : 8 bits
    Scan type : Progressive
    Bits/(Pixel*Frame) : 0.354
    Stream size : 1.97 GiB (97%)
    Writing library : x264 core 148 r2638 7599210
    Encoding settings : cabac=1/ref=3/deblock=1: 0: 0/analyse=0x3: 0x113/me=hex/subme=7/psy=1/psy_rd=1.00: 0.00/mixed_ref=1/me_range=16/chroma_me=1/trellis=1/8x8dct=1/cqm=0/deadzone=21, 11/fast_pskip=1/chroma_qp_offset=-2/threads=12/lookahead_threads=2/sliced_threads=0/nr=0/decimate=1/interlaced=0/bluray_compat=0/constrained_intra=0/bframes=3/b_pyramid=2/b_adapt=1/b_bias=0/direct=1/weightb=1/open_gop=0/weightp=2/keyint=199/keyint_min=19/scenecut=40/intra_refresh=0/rc_lookahead=40/rc=2pass/mbtree=1/bitrate=6499/ratetol=1.0/qcomp=0.60/qpmin=0/qpmax=69/qpstep=4/cplxblur=20.0/qblur=0.5/ip_ratio=1.40/aq=1: 1.00
    Default : Yes
    Forced : No
    Audio
    ID : 2
    Format : AC-3
    Format/Info : Audio Coding 3
    Mode extension : CM (complete main)
    Format settings, Endianness : Big
    Codec ID : A_AC3
    Duration : 43mn 17s
    Bit rate mode : Constant
    Bit rate : 192 Kbps
    Channel(s) : 2 channels
    Channel positions : Front: L R
    Sampling rate : 48.0 KHz
    Frame rate : 31.250 fps (1536 spf)
    Compression mode : Lossy
    Stream size : 59.4 MiB (3%)
    Title : AMEDIA
    Language : Russian
    Default : Yes
    Forced : No


    Онлайн видео Стальная звезда



    Стальная звезда/Жестяная звезда/Tin Star (2017) WEBRip [H.264/720p-LQ] (сезон 1, серии 1 из 10) Amedia (обновляемая)
    загрузка...
    Рейтинг →
     (голосов: 1, оценка 4/5, голосовать можно 1 раз )

    Другие торренты по теме:

  • Стальная звезда / Жестяная звезда / Tin Star (2017) WEBRip (сезон 1, серии 1 из 10) Amedia (обновляемая)
  • Стальная звезда / Жестяная звезда / Tin Star (2017) HDTV [H.264 / 720p-LQ] (сезон 1, серии 1 из 10) Amedia (обновляемая)
  • Стальная звезда / Жестяная звезда / Tin Star (2017) WEBRip [H.264 / 720p-LQ] (сезон 1, серии 10 из 10) SunshineStudio [AD]


    • Комментарии (0):

      Информация

      Информация

        Посетители, находящиеся в группе Гости, не могут оставлять комментарии в данной новости.

        ↓ Меню




        ↓ Опрос

        Вы добавили сайт в закладки?
        Да
        Нет


        Top 10 за месяц (Фильмы)