.
Авторизация | Регистрация
Хочешь лучшие торренты? Добавь свой email!
Добавить

Торрент скачать бесплатно

» » Стальная звезда / Жестяная звезда / Tin Star (2017) WEBRip (сезон 1, серии 1 из 10) Amedia (обновляемая) торрент скачать бесплатно




    Стальная звезда / Жестяная звезда / Tin Star (2017) WEBRip (сезон 1, серии 1 из 10) Amedia (обновляемая) торрент скачать бесплатно

    Опубликовал: Админ | Дата: 11-09-2017, 05:00 | Просмотров: 0

    Производство: Великобритания
    Жанр: драма
    Режиссер: Жиль Банньер, Марк Йобст, Грант Харви

    Актеры
    Тим Рот, Кристина Хендрикс, Кристофер Хейердал, Оливер Куперсмит, Линда Бойд, Майк Ковач, Майлс Питерман, Сара Подемски, Райан Кеннеди и др.

    Описание

    История о том, как бывший полицейский детектив Джим Уорт из Лондона вместе с семьёй перебрался в городок у скалистых гор, чтобы возглавить местную полицию. После открытия неподалёку нефтеочистительного завода городок наводнили мигранты, спровоцировав рост преступности, проституции и наркоторговли. Попытки Джима восстановить порядок превратили его жизнь и жизнь его близких в ад, от которого некуда скрыться.

    Дата мировой премьеры: 7 сентября 2017
    Продолжительность: ~00: 45: 00 серия
    Качество видео: WEBRip
    Перевод: Многоголосый закадровый, профессиональный -Amedia
    Видео: Xvid, 720x400 (16: 9), ~1575 Kbps
    Аудио: AC3, 2 ch, 192 Kbps

    Общее
    Полное имя : F: Стальная звезда (2017)Серия 01.avi
    Формат : AVI
    Формат/Информация : Audio Video Interleave
    Размер файла : 550 Мбайт
    Продолжительность : 43 м. 16 с.
    Общий поток : 1777 Кбит/сек
    Название фильма : ZheCt1aHaYa.3Be3da.s01e01.WEBRip.Amed1a
    Программа кодирования : VirtualDubMod 1.5.10.2 (build 2540/release)
    Формат оригинала/Имя : Movie
    Видео
    Идентификатор : 0
    Формат : MPEG-4 Visual
    Профиль формата : Advanced Simple@L5
    Параметр BVOP формата : 4
    Параметр QPel формата : Нет
    Параметр GMC формата : Без точки перехода
    Параметр матрицы формата : Default (MPEG)
    Идентификатор кодека : XVID
    Идентификатор кодека/Подсказка : XviD
    Продолжительность : 43 м. 16 с.
    Битрейт : 1577 Кбит/сек
    Ширина : 720 пикселей
    Высота : 400 пикселей
    Соотношение сторон : 16: 9
    Частота кадров : 19, 940 кадров/сек
    Цветовое пространство : YUV
    Субдискретизация насыщенности : 4: 2: 0
    Битовая глубина : 8 бит
    Тип развёртки : Прогрессивная
    Метод сжатия : С потерями
    Бит/(Пиксели*Кадры) : 0.275
    Размер потока : 488 Мбайт (89%)
    Библиотека кодирования : XviD 1.2.1 (UTC 2008-12-04)
    Аудио
    Идентификатор : 1
    Формат : AC-3
    Формат/Информация : Audio Coding 3
    Параметр Endianness формата : Big
    Идентификатор кодека : 2000
    Продолжительность : 43 м. Самое интересное в это истории, что об этом Кравчук ничего не знал. 16 с.
    Вид битрейта : Постоянный
    Битрейт : 192 Кбит/сек
    Каналы : 2 канала
    Расположение каналов : Front: L R
    Частота : 48, 0 КГц
    Частота кадров : 31, 250 кадров/сек (1536 SPF)
    Битовая глубина : 16 бит
    Метод сжатия : С потерями
    Размер потока : 59, 4 Мбайт (11%)
    Выравнивание : Разделение по промежуткам
    Продолжительность промежутка : 50 мс. (1, 00 видеокадр)
    Время предзагрузки промежутка : 500 мс.
    ServiceKind/String : Complete Main


    Онлайн видео Стальная звезда



    Стальная звезда/Жестяная звезда/Tin Star (2017) WEBRip (сезон 1, серии 1 из 10) Amedia (обновляемая)
    загрузка...
    Рейтинг →
     (голосов: 1, оценка 3/5, голосовать можно 1 раз )

    Другие торренты по теме:

  • Стальная звезда / Жестяная звезда / Tin Star (2017) WEBRip [H.264 / 720p-LQ] (сезон 1, серии 1 из 10) Amedia (обновляемая)
  • Стальная звезда / Жестяная звезда / Tin Star (2017) HDTV [H.264 / 720p-LQ] (сезон 1, серии 1 из 10) Amedia (обновляемая)
  • Стальная звезда / Жестяная звезда / Tin Star (2017) WEBRip [H.264 / 720p-LQ] (сезон 1, серии 10 из 10) SunshineStudio [AD]


    • Комментарии (0):

      Информация

      Информация

        Посетители, находящиеся в группе Гости, не могут оставлять комментарии в данной новости.

        ↓ Меню




        ↓ Опрос

        Вы добавили сайт в закладки?
        Да
        Нет


        Top 10 за месяц (Фильмы)