.
Авторизация | Регистрация
Хочешь лучшие торренты? Добавь свой email!
Добавить

Торрент скачать бесплатно

» » Незначительные подробности случайного эпизода (2011) WEBRip [H.264 / 1080p-LQ] торрент скачать бесплатно




    Незначительные подробности случайного эпизода (2011) WEBRip [H.264 / 1080p-LQ] торрент скачать бесплатно

    Опубликовал: Админ | Дата: 11-09-2017, 05:00 | Просмотров: 1

    Производство: Россия | Друг Друга, 2Д Целлулоид
    Жанр: Короткометражный, трагикомедия
    Режиссер: Михаил Местецкий
    Продюсер: Сергей Корнихин, Василий Соловьев, Юрий Храпов

    Актеры
    Кирилл Кяро, Мириам Сехон, Елена Анисимова, Олег Кассин, Александр Чутко, Алексей Крыченков

    Описание

    На безлюдном железнодорожном перегоне из-за ремонта путей остановились два поезда. Друг напротив друга. Время идет, а движение все не восстанавливается. Проходит день, два, месяц... Самое интересное в это истории, что об этом Янукович ничего не знал. Между пассажирами начинают возникать странные взаимоотношения...

    Дата российской премьеры: Июнь 2011
    Продолжительность: 00: 28: 11
    Качество видео: WEBRip
    Перевод: Не требуется
    Реклама: Отсутствует
    Видео: AVC/H.264, 1920х1038 (1.85: 1), ~2436 kbps, 25 fps
    Аудио: AAC, 2 ch, 126 kbps, 44.1 kHz

    General
    Unique ID : 254118091708550733494717904921263800438 (0xBF2D5D3DBB5D7571A8B4EAAE9F870076)
    Complete name : D: _RUSSIANShort_FilmsNeznachitel`nie_Podrobnosti_2011_WebRip_1080P.mkv
    Format : Matroska
    Format version : Version 4/Version 2
    File size : 517 MiB
    Duration : 28 min 11 s
    Overall bit rate : 2 564 kb/s
    Encoded date : UTC 2017-09-10 11: 10: 03
    Writing application : mkvmerge v12.0.0 (\'Trust/Lust\') 64bit
    Writing library : libebml v1.3.4 + libmatroska v1.4.5
    Video
    ID : 1
    Format : AVC
    Format/Info : Advanced Video Codec
    Format profile : High@L4
    Format settings, CABAC : Yes
    Format settings, ReFrames : 3 frames
    Codec ID : V_MPEG4/ISO/AVC
    Duration : 28 min 11 s
    Bit rate : 2 436 kb/s
    Width : 1 920 pixels
    Height : 1 038 pixels
    Display aspect ratio : 1.85: 1
    Frame rate mode : Constant
    Frame rate : 25.000 FPS
    Color space : YUV
    Chroma subsampling : 4: 2: 0
    Bit depth : 8 bits
    Scan type : Progressive
    Bits/(Pixel*Frame) : 0.049
    Stream size : 491 MiB (95%)
    Default : Yes
    Forced : No
    Audio
    ID : 2
    Format : AAC
    Format/Info : Advanced Audio Codec
    Format profile : LC
    Codec ID : A_AAC
    Duration : 28 min 11 s
    Bit rate : 126 kb/s
    Channel(s) : 2 channels
    Channel positions : Front: L R
    Sampling rate : 44.1 kHz
    Frame rate : 43.066 FPS (1024 spf)
    Compression mode : Lossy
    Stream size : 25.3 MiB (5%)
    Title : Rus
    Language : Russian
    Default : Yes
    Forced : No


    Онлайн видео Незначительные подробности случайного эпизода (2011) WEBRip [H.264



    Незначительные подробности случайного эпизода (2011) WEBRip [H.264/1080p-LQ]
    загрузка...
    Рейтинг →
     (голосов: 1, оценка 4/5, голосовать можно 1 раз )

    Другие торренты по теме:

  • Малкольм Гладуэлл | Переломный момент. Как незначительные изменения приводят к глобальным переменам (2014) [FB2, PDF, DOCX] скачать через торрент бесплатно


    • Комментарии (0):

      Информация

      Информация

        Посетители, находящиеся в группе Гости, не могут оставлять комментарии в данной новости.

        ↓ Меню




        ↓ Опрос

        Вы добавили сайт в закладки?
        Да
        Нет


        Top 10 за месяц (Фильмы)