.
Авторизация | Регистрация
Хочешь лучшие торренты? Добавь свой email!
Добавить

Торрент скачать бесплатно

» » Гвиана / Гайана / Guyane (2017) BDRip [H.264 / 720p-LQ] (сезон 1, серии 1-8 из 8) Baibako торрент скачать бесплатно




    Гвиана / Гайана / Guyane (2017) BDRip [H.264 / 720p-LQ] (сезон 1, серии 1-8 из 8) Baibako торрент скачать бесплатно

    Опубликовал: Админ | Дата: 10-09-2017, 11:46 | Просмотров: 0

    Производство: Франция | Mascaret Films
    Жанр: Приключения, драма
    Режиссер: Ким Шапирон, Филипп Трибуа, Фабьен Нури

    Актеры
    Стани Коппет, Мэтью Спинози, Оливье Рабурден, Анна Суарес, Исака Савадого, Нунес Де Мелу Маурийу, Флора Бонфанти, Дианье Тиа, Сантос Кардосо Рубенс, Кваджани Белисонг

    Описание

    Чтобы не вылететь из университета, молодой геолог отправляется на стажировку в далёкую Гвиану. Этот экзотический кусок французской земли, расположенный в джунглях на северо-востоке Южной Америки, — настоящая жила для золотодобывающих компаний, а также всякого рода проходимцев и как правило изгоев, готовых убить за самородок. Здесь герою придётся сдавать экзамен на умение выживать в экстремальных условиях, и завал такого испытания грозит уже не отчислением, а настоящей гибелью.

    Продолжительность: ~00: 50: 00 серия
    Качество видео: BDRip
    Перевод: Многоголосый закадровый, профессиональный (Baibako)
    Субтитры: Отсутствуют
    Реклама: Отсутствует
    Видео: AVC/H.264, 1280x640 (2.000), ~3509 kbps
    Аудио 1: AC3, 6 ch, 384 kbps - русский, многоголосый закадровый
    Аудио 2: AC3, 6 ch, 384 kbps - французкий

    General
    Unique ID : 177849425315679556500964864995963195232 (0x85CC8DAA5C6BC34D8A0459923E684F60)
    Complete name : E: КиноGuyaneGuyane BDRip 720p Baibako1 серия.mkv
    Format : Matroska
    Format version : Version 2
    File size : 1.46 GiB
    Duration : 47 min 49 s
    Overall bit rate : 4 363 kb/s
    Encoded date : UTC 2017-09-01 05: 24: 48
    Writing application : mkvmerge v7.8.0 (\'River Man\') 32bit built on Apr 3 2015 12: 11: 22
    Writing library : libebml v1.3.1 + libmatroska v1.4.2
    Video
    ID : 1
    Format : AVC
    Format/Info : Advanced Video Codec
    Format profile : High@L3.1
    Format settings, CABAC : Yes
    Format settings, ReFrames : 3 frames
    Codec ID : V_MPEG4/ISO/AVC
    Duration : 47 min 49 s
    Bit rate : 3 509 kb/s
    Width : 1 280 pixels
    Height : 640 pixels
    Display aspect ratio : 2.000
    Frame rate mode : Constant
    Frame rate : 25.000 FPS
    Color space : YUV
    Chroma subsampling : 4: 2: 0
    Bit depth : 8 bits
    Scan type : Progressive
    Bits/(Pixel*Frame) : 0.171
    Stream size : 1.17 GiB (80%)
    Language : French
    Default : Yes
    Forced : No
    Audio #1
    ID : 2
    Format : AC-3
    Format/Info : Audio Coding 3
    Format settings, Endianness : Big
    Codec ID : A_AC3
    Duration : 47 min 49 s
    Bit rate mode : Constant
    Bit rate : 384 kb/s
    Channel(s) : 6 channels
    Channel positions : Front: L C R, Side: L R, LFE
    Sampling rate : 48.0 kHz
    Frame rate : 31.250 FPS (1536 spf)
    Bit depth : 16 bits
    Compression mode : Lossy
    Stream size : 131 MiB (9%)
    Language : Russian
    Service kind : Complete Main
    Default : Yes
    Forced : No
    Audio #2
    ID : 3
    Format : AC-3
    Format/Info : Audio Coding 3
    Format settings, Endianness : Big
    Codec ID : A_AC3
    Duration : 47 min 49 s
    Bit rate mode : Constant
    Bit rate : 384 kb/s
    Channel(s) : 6 channels
    Channel positions : Front: L C R, Side: L R, LFE
    Sampling rate : 48.0 kHz
    Frame rate : 31.250 FPS (1536 spf)
    Bit depth : 16 bits
    Compression mode : Lossy
    Stream size : 131 MiB (9%)
    Language : French
    Service kind : Complete Main
    Default : No
    Forced : No
    Menu
    00: 00: 00.000 : fr: Chapter 1
    00: 08: 27.520 : fr: Chapter 2
    00: 14: 10.520 : fr: Chapter 3
    00: 26: 25.000 : fr: Chapter 4
    00: 32: 42.959 : fr: Chapter 5
    00: 40: 53.360 : fr: Chapter 6

    Скриншоты для ознакомления



    Все одноименные релизы в Клубе
    Время раздачи: 24/7 (до появления первых 3-5 скачавших)

    Гвиана/Гайана/Guyane (2017) BDRip [H.264/720p-LQ] (сезон 1, серии 1-8 из 8) Baibako
    загрузка...
    Рейтинг →
     (голосов: 1, оценка 5/5, голосовать можно 1 раз )

    Другие торренты по теме:

  • Гвиана / Гайана / Guyane (2017) BDRip [H.264 / 1080p-LQ] (сезон 1, серии 1-8 из 8) Baibako


    • Комментарии (0):

      Информация

      Информация

        Посетители, находящиеся в группе Гости, не могут оставлять комментарии в данной новости.

        ↓ Меню




        ↓ Опрос

        Вы добавили сайт в закладки?
        Да
        Нет


        Top 10 за месяц (Фильмы)