.
Авторизация | Регистрация
Хочешь лучшие торренты? Добавь свой email!
Добавить

Торрент скачать бесплатно

» » Твин Пикс / Twin Peaks (2017) WEBRip [H.264 / 720p] (сезон 3, серии 1-18 из 18) ТВ3 торрент скачать бесплатно




    Твин Пикс / Twin Peaks (2017) WEBRip [H.264 / 720p] (сезон 3, серии 1-18 из 18) ТВ3 торрент скачать бесплатно

    Опубликовал: Админ | Дата: 10-09-2017, 11:46 | Просмотров: 2

    Производство: США | Rancho Rosa Partnership, Showtime
    Жанр: Драма, криминал, детектив, мистика
    Режиссер: Дэвид Линч

    Актеры
    Мэдчен Эмик, Дэна Эшбрук, Шерил Ли, Кайл МакЛахлан, Эверетт МакГилл, Кимми Робертсон, Расс Тэмблин, Рэй Уайз, Грэйс Забриски, Эми Шилз и др.

    Описание

    25 лет назад жители маленького городка Твин Пикс были ошеломлены загадочным убийством королевы школы Лоры Палмер. Но история еще не закончена, события давно минувших дней дают о себе знать.

    Продолжительность: ~00: 55: 00 серия
    Качество видео: WEBRip
    Перевод: Дублированный (ТВ3)
    Субтитры: Русские (форсированные)
    Реклама: Отсутствует
    Видео: AVC/H.264, 1280x720 (16: 9), ~5221 kbps
    Аудио 1: AC3, 2 ch, 192 kbps - Русский, дублированный
    Аудио 2: AC3, 6 ch, 640 kbps - Английский

    General
    Unique ID : 177771470626678203263437229421121884514 (0x85BD8A33DB443E25A0B11FD741EDD162)
    Complete name : E: КиноTwin Peaks 720 ТВ3Twin.Peaks.S03E01.720p.WEB-DL.Part 1.mkv
    Format : Matroska
    Format version : Version 4/Version 2
    File size : 2.46 GiB
    Duration : 58 min 5 s
    Overall bit rate : 6 054 kb/s
    Encoded date : UTC 2017-05-29 05: 50: 49
    Writing application : mkvmerge v9.8.0 (\'Kuglblids\') 64bit
    Writing library : libebml v1.3.4 + libmatroska v1.4.5
    Video
    ID : 1
    Format : AVC
    Format/Info : Advanced Video Codec
    Format profile : High@L4.1
    Format settings, CABAC : Yes
    Format settings, ReFrames : 9 frames
    Codec ID : V_MPEG4/ISO/AVC
    Duration : 58 min 5 s
    Bit rate : 5 221 kb/s
    Width : 1 280 pixels
    Height : 720 pixels
    Display aspect ratio : 16: 9
    Frame rate mode : Constant
    Frame rate : 25.000 FPS
    Color space : YUV
    Chroma subsampling : 4: 2: 0
    Bit depth : 8 bits
    Scan type : Progressive
    Bits/(Pixel*Frame) : 0.227
    Stream size : 2.12 GiB (86%)
    Writing library : x264 core 144 r2525 40bb568
    Encoding settings : cabac=1/ref=9/deblock=1: -3: -3/analyse=0x3: 0x133/me=umh/subme=10/psy=1/psy_rd=1.00: 0.00/mixed_ref=1/me_range=48/chroma_me=1/trellis=2/8x8dct=1/cqm=0/deadzone=21, 11/fast_pskip=0/chroma_qp_offset=-2/threads=12/lookahead_threads=2/sliced_threads=0/nr=0/decimate=0/interlaced=0/bluray_compat=0/constrained_intra=0/bframes=8/b_pyramid=2/b_adapt=2/b_bias=0/direct=3/weightb=1/open_gop=0/weightp=2/keyint=250/keyint_min=23/scenecut=40/intra_refresh=0/rc=crf/mbtree=0/crf=17.0/qcomp=0.60/qpmin=0/qpmax=69/qpstep=4/ip_ratio=1.30/pb_ratio=1.20/aq=3: 0.80
    Default : Yes
    Forced : No
    Audio #1
    ID : 2
    Format : AC-3
    Format/Info : Audio Coding 3
    Format settings, Endianness : Big
    Codec ID : A_AC3
    Duration : 58 min 5 s
    Bit rate mode : Constant
    Bit rate : 192 kb/s
    Channel(s) : 2 channels
    Channel positions : Front: L R
    Sampling rate : 48.0 kHz
    Frame rate : 31.250 FPS (1536 spf)
    Bit depth : 16 bits
    Compression mode : Lossy
    Stream size : 79.8 MiB (3%)
    Title : DUB (TB-3)
    Language : Russian
    Service kind : Complete Main
    Default : Yes
    Forced : No
    Audio #2
    ID : 3
    Format : AC-3
    Format/Info : Audio Coding 3
    Format settings, Endianness : Big
    Codec ID : A_AC3
    Duration : 58 min 5 s
    Bit rate mode : Constant
    Bit rate : 640 kb/s
    Channel(s) : 6 channels
    Channel positions : Front: L C R, Side: L R, LFE
    Sampling rate : 48.0 kHz
    Frame rate : 31.250 FPS (1536 spf)
    Bit depth : 16 bits
    Compression mode : Lossy
    Stream size : 266 MiB (11%)
    Language : English
    Service kind : Complete Main
    Default : No
    Forced : No
    Text
    ID : 4
    Format : UTF-8
    Codec ID : S_TEXT/UTF8
    Codec ID/Info : UTF-8 Plain Text
    Duration : 5 min 1 s
    Bit rate : 9 b/s
    Count of elements : 17
    Stream size : 375 Bytes (0%)
    Title : Forced
    Language : Russian
    Default : Yes
    Forced : No

    Скриншоты для ознакомления






    Все одноименные релизы в Клубе
    Время раздачи: 24/7 (до появления первых 3-5 скачавших)

    Твин Пикс/Twin Peaks (2017) WEBRip [H.264/720p] (сезон 3, серии 1-18 из 18) ТВ3
    загрузка...
    Рейтинг →
     (голосов: 1, оценка 4/5, голосовать можно 1 раз )

    Другие торренты по теме:

  • Твин Пикс / Twin Peaks (1990-1991) BDRemux [1080p] (сезоны 1-2, серии 1-30 из 30)
  • Твин Пикс / Twin Peaks (1990) HDRip (сезон 1, серии 1 из 8) AlexFilm (обновляемая) скачать через торрент бесплатно
  • Angelo Badalamenti - Твин Пикс / Twin Peaks (1990) [AAC|WEB-DL|256 кб / с]<Score> скачать через торрент бесплатно
  • Твин Пикс: Вырезанные сцены / Twin Peaks: The Missing Pieces (2014) BDRip [H.264 / 1080p]
  • Твин Пикс / Twin Peaks (1990) WEB-DLRip (сезон 1, серии 1-4 из 8) LostFilm (обновляемая)
  • Твин Пикс / Twin Peaks (1990) BDRip [H.264] (сезон 1, серии 1-4 из 8) LostFilm [MP4|960x720]
  • Твин Пикс / Twin Peaks (1990) BDRip [H.264 / 720p-LQ] (сезон 1, серии 1-4 из 8) LostFilm (обновляемая)
  • Твин Пикс / Twin Peaks (1990) BDRip [H.264 / 1080p] (сезон 1, серии 1-8 из 8) LostFilm, Sci-Fi, ОРТ, РТР, Сербин


    • Комментарии (0):

      Информация

      Информация

        Посетители, находящиеся в группе Гости, не могут оставлять комментарии в данной новости.

        ↓ Меню




        ↓ Опрос

        Вы добавили сайт в закладки?
        Да
        Нет


        Top 10 за месяц (Фильмы)