.
Авторизация | Регистрация
Хочешь лучшие торренты? Добавь свой email!
Добавить

Торрент скачать бесплатно

» » Мистер Мерседес / Mr. Mercedes (2017) WEB-DL [H.264 / 720p-LQ] (сезон 1, серии 1-5 из 10) LostFilm (обновляемая) торрент скачать бесплатно




    Мистер Мерседес / Mr. Mercedes (2017) WEB-DL [H.264 / 720p-LQ] (сезон 1, серии 1-5 из 10) LostFilm (обновляемая) торрент скачать бесплатно

    Опубликовал: Админ | Дата: 10-09-2017, 11:46 | Просмотров: 0

    Производство: США, Sonar Entertainment, Temple Hill Entertainment
    Жанр: Детектив, Триллер
    Режиссер: Джек Бендер

    Актеры
    Брендан Глисон, Келли Линч, Гарри Тредэвэй, Мэри-Луиз Паркер, Джаррель Джером, Тьюзди Биби, Лаура Дулинг, Билл Келли, Дэйв МакДональд и др.

    Описание

    Главный герой сериала — полицейский Билл Ходжесс, который недавно вышел в отставку. Одно из преступлений не смогло оставить детектива равнодушным: жестокий и циничный преступник направил угнанный автомобиль в толпу горожан. Ходжесс, у которого много свободного времени, решает самостоятельно найти бандита на Мерседесе, пока не случилось очередной трагедии...
    Сериал Мистер Мерседес является экранизацией романа Стивена Кинга.

    Дата мировой премьеры: 9 августа 2017
    Дата премьеры в России: 11 августа 2017
    Возраст: 18+ (зрителям, достигшим 18 лет. запрещено для детей)

    Релиз от: Grandfather61
    Продолжительность: ~00: 57: 00 серия
    Качество видео: WEB-DL
    Перевод: Многоголосый закадровый, профессиональный -LostFilm
    Субтитры: Английские
    Реклама: отсутствует
    Видео: AVC/H.264, 1280х720, ~3 698 Kbps
    Аудио # 1: AC3, 2 ch, 192 Kbps - русский, многоголосый закадровый
    Аудио # 2: AC3, 2 ch, 192 Kbps - английский

    General
    Unique ID : 200517780508505153278076036043700155157 (0x96DA51DD847ED887932423C6CC17B315)
    Complete name : G: FilmsMr.Mercedes.S01.720p.WEB-DL.LostFilmMr.Mercedes.S01E01.720p.WEB-DL.LostFilm.mkv
    Format : Matroska
    Format version : Version 4/Version 2
    File size : 1.66 GiB
    Duration : 57mn 3s
    Overall bit rate : 4 164 Kbps
    Encoded date : UTC 2017-09-04 16: 07: 45
    Writing application : mkvmerge v15.0.0 (\'Duel with the Devil\') 64-bit
    Writing library : libebml v1.3.5 + libmatroska v1.4.5
    Video
    ID : 1
    Format : AVC
    Format/Info : Advanced Video Codec
    Format profile : Main@L3.1
    Format settings, CABAC : Yes
    Format settings, ReFrames : 4 frames
    Format settings, GOP : M=3, N=60
    Codec ID : V_MPEG4/ISO/AVC
    Duration : 57mn 3s
    Bit rate mode : Constant
    Bit rate : 3 698 Kbps
    Nominal bit rate : 4 000 Kbps
    Width : 1 280 pixels
    Height : 720 pixels
    Display aspect ratio : 16: 9
    Frame rate mode : Constant
    Frame rate : 30.000 fps
    Color space : YUV
    Chroma subsampling : 4: 2: 0
    Bit depth : 8 bits
    Scan type : Progressive
    Bits/(Pixel*Frame) : 0.134
    Stream size : 1.47 GiB (89%)
    Language : English
    Default : Yes
    Forced : No
    Audio #1
    ID : 2
    Format : AC-3
    Format/Info : Audio Coding 3
    Mode extension : CM (complete main)
    Format settings, Endianness : Big
    Codec ID : A_AC3
    Duration : 57mn 3s
    Bit rate mode : Constant
    Bit rate : 192 Kbps
    Channel(s) : 2 channels
    Channel positions : Front: L R
    Sampling rate : 48.0 KHz
    Frame rate : 31.250 fps (1536 spf)
    Compression mode : Lossy
    Delay relative to video : -23ms
    Stream size : 78.4 MiB (5%)
    Title : LostFilm
    Language : Russian
    Default : Yes
    Forced : No
    Audio #2
    ID : 3
    Format : AC-3
    Format/Info : Audio Coding 3
    Mode extension : CM (complete main)
    Format settings, Endianness : Big
    Codec ID : A_AC3
    Duration : 57mn 3s
    Bit rate mode : Constant
    Bit rate : 192 Kbps
    Channel(s) : 2 channels
    Channel positions : Front: L R
    Sampling rate : 48.0 KHz
    Frame rate : 31.250 fps (1536 spf)
    Compression mode : Lossy
    Delay relative to video : -23ms
    Stream size : 78.4 MiB (5%)
    Title : eng
    Language : English
    Default : No
    Forced : No
    Text
    ID : 4
    Format : UTF-8
    Codec ID : S_TEXT/UTF8
    Codec ID/Info : UTF-8 Plain Text
    Title : eng
    Language : English
    Default : No
    Forced : No


    Мистер Мерседес/Mr. Mercedes (2017) WEB-DL [H.264/720p-LQ] (сезон 1, серии 1-5 из 10) LostFilm (обновляемая)
    загрузка...
    Рейтинг →
     (голосов: 1, оценка 4/5, голосовать можно 1 раз )

    Другие торренты по теме:

  • Мистер Мерседес / Mr. Mercedes (2017) WEBRip [H.264 / 720p-LQ] (сезон 1, серии 1 из 10) NewStudio (Обновляемая) [AD]
  • Мистер Мерседес / Mr. Mercedes (2017) WEBRip [H.264 / 720p-LQ] (сезон 1, серии 1 из 10) AlexFilm (Обновляемая) [AD]
  • Мистер Мерседес / Mr. Mercedes (2017) WEB-DL [H.264 / 720р-LQ] (сезон 1, серии 1 из 10) Good People (обновляемая)
  • Мистер Мерседес / Mr. Mercedes (2017) WEB-DLRip [H.264] (сезон 1, серии 1-7 из 10) LostFilm [MP4|1280x720] [AD]
  • Мистер Мерседес / Mr. Mercedes (2017) HDTVRip [H.264 / 1080i-LQ] (сезон 1, серии 1-10 из 10) SDI Media


    • Комментарии (0):

      Информация

      Информация

        Посетители, находящиеся в группе Гости, не могут оставлять комментарии в данной новости.

        ↓ Меню




        ↓ Опрос

        Вы добавили сайт в закладки?
        Да
        Нет


        Top 10 за месяц (Фильмы)