.
Авторизация | Регистрация
Хочешь лучшие торренты? Добавь свой email!
Добавить

Торрент скачать бесплатно

» » Трасса смерти (2016) WEB-DLRip [H.264 / 720p-LQ] (серии 1-10 из 10) торрент скачать бесплатно




    Трасса смерти (2016) WEB-DLRip [H.264 / 720p-LQ] (серии 1-10 из 10) торрент скачать бесплатно

    Опубликовал: Админ | Дата: 10-09-2017, 11:46 | Просмотров: 0

    Производство: Россия/Мотор Фильм Студия
    Жанр: триллер, детектив
    Режиссер: Денис Нейманд

    Актеры
    Сергей Маковецкий, Андрей Мерзликин, Агния Кузнецова, Елизавета Лотова, Маргарита Дьяченкова, Александр Лепихов, Эдуард Айткулов, Дмитрий Брауэр, Александр Лучинин, Артём Семакин и др.

    Описание

    Банда преступников разбрасывает острые предметы по трассе, вынуждая водителей останавливаться для замены шин. Бандиты в это время нападают на водителей и пассажиров, убивают и грабят. Жестокость совершаемых убийств дает основание полагать, что следствие имеет дело с особо опасной криминальной группировкой, на след которой напасть крайне сложно — преступники не оставляют ни свидетелей, ни улик...

    Возраст: 16+ (зрителям, достигшим 16 лет)
    Релиз от: Алехаndr
    Продолжительность: ~00: 48: 00 серия
    Качество видео: WEB-DLRip
    Видео: AVC/H.264, 1280x720 (16: 9), ~2569 Kbps
    Аудио: AC3, 2 ch, 192 Kbps

    Общее
    Уникальный идентификатор : 207613964868601988712490483040151278457 (0x9C30FEC4344CF5FB8F0BC26749321379)
    Полное имя : D: Трасса смерти (2016).by.АлехаndrТрасса смерти 1 серия.by.Алехаndr.mkv
    Формат : Matroska
    Версия формата : Version 4/Version 2
    Размер файла : 959 Мбайт
    Продолжительность : 48 м. 38 с.
    Общий поток : 2757 Кбит/сек
    Программа кодирования : Lavf57.71.100
    Библиотека кодирования : Lavf57.71.100
    ErrorDetectionType : Per level 1
    Видео
    Идентификатор : 1
    Формат : AVC
    Формат/Информация : Advanced Video Codec
    Профиль формата : High@L4
    Параметр CABAC формата : Да
    Параметр RefFrames формата : 4 кадра
    Идентификатор кодека : V_MPEG4/ISO/AVC
    Продолжительность : 48 м. 38 с.
    Битрейт : 2569 Кбит/сек
    Ширина : 1280 пикселей
    Высота : 720 пикселей
    Соотношение сторон : 16: 9
    Режим частоты кадров : Постоянный
    Частота кадров : 25, 000 кадров/сек
    Цветовое пространство : YUV
    Субдискретизация насыщенности : 4: 2: 0
    Битовая глубина : 8 бит
    Тип развёртки : Прогрессивная
    Бит/(Пиксели*Кадры) : 0.112
    Размер потока : 873 Мбайт (91%)
    Библиотека кодирования : x264 core 142
    Настройки программы : cabac=1/ref=3/deblock=1: 0: 0/analyse=0x3: 0x113/me=hex/subme=7/psy=1/psy_rd=1.00: 0.00/mixed_ref=1/me_range=16/chroma_me=1/trellis=1/8x8dct=1/cqm=0/deadzone=21, 11/fast_pskip=1/chroma_qp_offset=-2/threads=108/lookahead_threads=5/sliced_threads=0/nr=0/decimate=1/interlaced=0/bluray_compat=0/constrained_intra=0/bframes=6/b_pyramid=2/b_adapt=1/b_bias=0/direct=1/weightb=1/open_gop=0/weightp=2/keyint=50/keyint_min=26/scenecut=0/intra_refresh=0/rc_lookahead=40/rc=2pass/mbtree=1/bitrate=2569/ratetol=1.0/qcomp=0.60/qpmin=0/qpmax=69/qpstep=4/cplxblur=20.0/qblur=0.5/vbv_maxrate=3854/vbv_bufsize=10279/nal_hrd=none/filler=0/ip_ratio=1.40/aq=1: 1.00
    Default : Да
    Forced : Нет
    Аудио
    Идентификатор : 2
    Формат : AC-3
    Формат/Информация : Audio Coding 3
    Параметр Endianness формата : Big
    Идентификатор кодека : A_AC3
    Продолжительность : 48 м. 38 с.
    Вид битрейта : Постоянный
    Битрейт : 192 Кбит/сек
    Каналы : 2 канала
    Расположение каналов : Front: L R
    Частота : 48, 0 КГц
    Частота кадров : 31, 250 кадров/сек (1536 SPF)
    Битовая глубина : 16 бит
    Метод сжатия : С потерями
    Задержка видео : -80 мс.
    Размер потока : 66, 8 Мбайт (7%)
    Язык : unknown
    ServiceKind/String : Complete Main
    Default : Да
    Forced : Нет

    Скриншоты для ознакомления



    Все одноименные релизы в Клубе
    Время раздачи: 24/7 (круглосуточно) (до появления первых 3-5 скачавших)

    Трасса смерти (2016) WEB-DLRip [H.264/720p-LQ] (серии 1-10 из 10)
    загрузка...
    Рейтинг →
     (голосов: 1, оценка 4/5, голосовать можно 1 раз )

    Другие торренты по теме:

  • Линия защиты. Трасса смерти (2014.11.19) SATRip
  • Трасса смерти (2016) SATRip (сезон 1, серии 1-2 из 10) [AD] (обновляемая)
  • Трасса смерти (2017) SATRip [H.264] (серии 1-2 из 10) (обновляемая)
  • Трасса смерти (2016) HDTVRip (серии 1-10 из 10)
  • Трасса смерти (2016) HDTVRip [H.264 / 720p-LQ] (серии 1-10 из 10)
  • Трасса смерти (2016) WEBRip (серии 1-10 из 10)


    • Комментарии (0):

      Информация

      Информация

        Посетители, находящиеся в группе Гости, не могут оставлять комментарии в данной новости.

        ↓ Меню




        ↓ Опрос

        Вы добавили сайт в закладки?
        Да
        Нет


        Top 10 за месяц (Фильмы)