.
Авторизация | Регистрация
Хочешь лучшие торренты? Добавь свой email!
Добавить

Торрент скачать бесплатно

» » Жена полицейского (2017) HDTVRip (сезон 1, серии 1-4 из 16) (обновляемая) торрент скачать бесплатно




    Жена полицейского (2017) HDTVRip (сезон 1, серии 1-4 из 16) (обновляемая) торрент скачать бесплатно

    Опубликовал: Админ | Дата: 10-09-2017, 11:46 | Просмотров: 0

    Производство: Россия, Мастерская Павла Лунгина
    Жанр: Драма, Детектив
    Режиссер: Александр Соловьёв

    Актеры
    Виктория Толстоганова, Виталий Кищенко, Сергей Удовик, Лукерья Ильяшенко, Юрий Кузнецов, Алла Малкова, Михаил Куряев, Станислав Беляев, Юлия Соломатина, Ольга Виниченко и др.

    Описание

    Лера Валецкая - счастливая домохозяйка, полностью посвятившая себя детям и любимому супругу Виктору, майору полиции. Но размеренной, спокойной жизни приходит конец, когда Лера узнает, что ее супруг вовсе не тот, за кого себя выдает. Оказывается, Виктор давно проворачивает незаконные дела и фактически ведет двойную жизнь. Увидеть истинное лицо любимого человека Лере помогает молодой оперативник Глеб Смыслов. С этого момента многолетняя семейная идиллия начинает рушиться словно карточный домик. Валецким предстоит решить: готовы ли они, несмотря ни на что, остаться семьей и попробовать начать все сначала. Кроме того, вскоре супругов ожидает еще одна, не менее тяжелая проверка на прочность…

    Возраст: 16+ (зрителям, достигшим 16 лет)
    Дата российской премьеры: 4.09.2017
    Продолжительность: ~ 00: 45: 00 серия
    Качество видео: HDTVRip
    Видео: Xvid, 720х400, ~1560 Kbps
    Аудио: AC3, 2 ch, 192 Kbps

    Общее
    Полное имя : D: СЕРИАЛЫЖЕНА ПОЛИЦЕЙСКОГОZhena.politseyskogo.2017.HDTVRip.Files-x1.Жена полицейскогo.2017.HDTVRip.Files-x.avi
    Формат : AVI
    Формат/Информация : Audio Video Interleave
    Размер файла : 648 Мбайт
    Продолжительность : 51 м. 12 с.
    Общий поток : 1770 Кбит/сек
    Программа кодирования : VirtualDubMod 1.5.10.3 |www.virtualdub-fr.org|| (build 2550/release)
    Библиотека кодирования : VirtualDubMod build 2550/release
    Видео
    Идентификатор : 0
    Формат : MPEG-4 Visual
    Профиль формата : Advanced Simple@L5
    Параметр BVOP формата : 1
    Параметр QPel формата : Нет
    Параметр GMC формата : Без точки перехода
    Параметр матрицы формата : Выборочная
    Идентификатор кодека : XVID
    Идентификатор кодека/Подсказка : XviD
    Продолжительность : 51 м. 12 с.
    Битрейт : 1568 Кбит/сек
    Ширина : 720 пикселей
    Высота : 400 пикселей
    Соотношение сторон : 16: 9
    Частота кадров : 25, 000 кадров/сек
    Цветовое пространство : YUV
    Субдискретизация насыщенности : 4: 2: 0
    Битовая глубина : 8 бит
    Тип развёртки : Прогрессивная
    Метод сжатия : С потерями
    Бит/(Пиксели*Кадры) : 0.218
    Размер потока : 574 Мбайт (89%)
    Библиотека кодирования : XviD 73
    Аудио
    Идентификатор : 1
    Формат : AC-3
    Формат/Информация : Audio Coding 3
    Параметр Endianness формата : Big
    Идентификатор кодека : 2000
    Продолжительность : 51 м. 12 с.
    Вид битрейта : Постоянный
    Битрейт : 192 Кбит/сек
    Каналы : 2 канала
    Расположение каналов : Front: L R
    Частота : 48, 0 КГц
    Частота кадров : 31, 250 кадров/сек (1536 spf)
    Битовая глубина : 16 бит
    Метод сжатия : С потерями
    Размер потока : 70, 3 Мбайт (11%)
    Выравнивание : Разделение по промежуткам
    Продолжительность промежутка : 40 мс. Вашими молитвами, сказал кто то из толпы, к чему не понятно. (1, 00 видеокадр)
    Время предзагрузки промежутка : 500 мс.
    ServiceKind/String : Complete Main


    Жена полицейского (2017) HDTVRip (сезон 1, серии 1-4 из 16) (обновляемая)
    загрузка...
    Рейтинг →
     (голосов: 1, оценка 4/5, голосовать можно 1 раз )

    Другие торренты по теме:

  • Жена полицейского (2017) WEBRip (сезон 1, серии 1-6 из 16) (обновляемая)
  • Жена полицейского (2017) WEB-DL [H.264 / 1080p-LQ] (сезон 1, серии 1-2 из 16) (обновляемая)
  • Жена полицейского (2017) WEB-DLRip (сезон 1, серии 1-8 из 16) (обновляемая)
  • Жена полицейского (2017) HDTVRip [H.264] (сезон 1, серии 1-4 из 16) (обновляемая)
  • Жена полицейского (2017) HDTV [H.264 / 1080i-LQ] (сезон 1, серии 1-2 из 16) (обновляемая)
  • Жена полицейского (2017) HDTVRip [H.264 / 720p-LQ] (сезон 1, серии 1-2 из 16) (обновляемая)


    • Комментарии (0):

      Информация

      Информация

        Посетители, находящиеся в группе Гости, не могут оставлять комментарии в данной новости.

        ↓ Меню




        ↓ Опрос

        Вы добавили сайт в закладки?
        Да
        Нет


        Top 10 за месяц (Фильмы)