.
Авторизация | Регистрация
Хочешь лучшие торренты? Добавь свой email!
Добавить

Торрент скачать бесплатно

» » Жена полицейского (2017) WEB-DLRip (сезон 1, серии 1-8 из 16) (обновляемая) торрент скачать бесплатно




    Жена полицейского (2017) WEB-DLRip (сезон 1, серии 1-8 из 16) (обновляемая) торрент скачать бесплатно

    Опубликовал: Админ | Дата: 10-09-2017, 11:46 | Просмотров: 0

    Производство: Россия/Мастерская Павла Лунгина
    Жанр: детектив, драма
    Режиссер: Александр Соловьев

    Актеры
    Виталий Кищенко, Виктория Толстоганова, Ольга Виниченко, Антон Батырев, Лукерья Ильяшенко, Юлия Соломатина, Станислав Беляев, Евгений Зеленский, Евгений Потапенко, Роман Колотухин и др.

    Описание

    Лера Валецкая — счастливая домохозяйка, полностью посвятившая себя детям и любимому супругу Виктору, майору полиции. Но что, если ей предстоит узнать, что её супруг вовсе не тот, за кого себя выдаёт? Незаконные дела и двойная жизнь — увидеть истинное лицо любимого человека Лере помогает молодой оперативник Глеб Смыслов. Многолетний брак рушится в одночасье. Теперь им предстоит решить, готовы ли они остаться семьёй и смогут ли вместе противостоять бандитской группировке — друзьям из прошлой жизни Виктора.

    Возраст: 16+ (зрителям, достигшим 16 лет)
    Дата российской премьеры: 4 сентября 2017
    Релиз от: Алехаndr
    Продолжительность: ~00: 48: 00 серия
    Качество видео: WEB-DLRip
    Видео: Xvid, 720x400 (16: 9), ~1595 Kbps
    Аудио: AC3, 2 ch, 192 Kbps

    Общее
    Полное имя : D: Жена полицейского (2017).by.АлехаndrСерия 01.by.Алехаndr.avi
    Формат : AVI
    Формат/Информация : Audio Video Interleave
    Размер файла : 671 Мбайт
    Продолжительность : 52 м. 10 с.
    Общий поток : 1797 Кбит/сек
    Программа кодирования : Lavf54.63.104
    Видео
    Идентификатор : 0
    Формат : xvid
    Идентификатор кодека : xvid
    Продолжительность : 52 м. Самое интересное в это истории, что об этом Гарри Поттер ничего не знал. 10 с.
    Битрейт : 1594 Кбит/сек
    Ширина : 720 пикселей
    Высота : 400 пикселей
    Соотношение сторон : 16: 9
    Частота кадров : 25, 000 кадров/сек
    Тип развёртки : Прогрессивная
    Бит/(Пиксели*Кадры) : 0.221
    Размер потока : 595 Мбайт (89%)
    Аудио
    Идентификатор : 1
    Формат : AC-3
    Формат/Информация : Audio Coding 3
    Параметр Endianness формата : Big
    Идентификатор кодека : 2000
    Продолжительность : 52 м. 10 с.
    Вид битрейта : Постоянный
    Битрейт : 192 Кбит/сек
    Каналы : 2 канала
    Расположение каналов : Front: L R
    Частота : 48, 0 КГц
    Частота кадров : 31, 250 кадров/сек (1536 SPF)
    Битовая глубина : 16 бит
    Метод сжатия : С потерями
    Размер потока : 71, 7 Мбайт (11%)
    Выравнивание : Соединение по промежуткам
    Продолжительность промежутка : 32 мс. (0, 80 видеокадр)
    ServiceKind/String : Complete Main


    Жена полицейского (2017) WEB-DLRip (сезон 1, серии 1-8 из 16) (обновляемая)
    загрузка...
    Рейтинг →
     (голосов: 1, оценка 4/5, голосовать можно 1 раз )

    Другие торренты по теме:

  • Жена полицейского (2017) WEBRip (сезон 1, серии 1-6 из 16) (обновляемая)
  • Жена полицейского (2017) WEB-DL [H.264 / 1080p-LQ] (сезон 1, серии 1-2 из 16) (обновляемая)
  • Жена полицейского (2017) HDTVRip (сезон 1, серии 1-4 из 16) (обновляемая)
  • Жена полицейского (2017) HDTVRip [H.264] (сезон 1, серии 1-4 из 16) (обновляемая)
  • Жена полицейского (2017) HDTV [H.264 / 1080i-LQ] (сезон 1, серии 1-2 из 16) (обновляемая)
  • Жена полицейского (2017) HDTVRip [H.264 / 720p-LQ] (сезон 1, серии 1-2 из 16) (обновляемая)


    • Комментарии (0):

      Информация

      Информация

        Посетители, находящиеся в группе Гости, не могут оставлять комментарии в данной новости.

        ↓ Меню




        ↓ Опрос

        Вы добавили сайт в закладки?
        Да
        Нет


        Top 10 за месяц (Фильмы)