.
Авторизация | Регистрация
Хочешь лучшие торренты? Добавь свой email!
Добавить

Торрент скачать бесплатно

» » Ольга (2017) WEB-DLRip (сезон 2, серии 1-5 из 20) (обновляемая) торрент скачать бесплатно




    Ольга (2017) WEB-DLRip (сезон 2, серии 1-5 из 20) (обновляемая) торрент скачать бесплатно

    Опубликовал: Админ | Дата: 10-09-2017, 11:46 | Просмотров: 0

    Производство: Россия/Good Story Media
    Жанр: комедия
    Режиссер: Алексей Нужный, Игорь Волошин

    Актеры
    Яна Троянова, Ксения Суркова, Сергей Романович, Мухаммед Абу-Ризик, Алина Алексеева, Василий Кортуков, Максим Костромыкин, Филипп Ершов, Александр Шам, Светлана Костюкова и др.

    Описание

    Главная героиня воспитывает двух детей от разных браков, заботится об отце-алкоголике и пытается наладить личную жизнь. Старшая дочь Анька учится в ПТУ, думает, что она единственный адекватный член семьи и в её жизни все будет по-другому, младший сын Тимофей, чей отец вернулся к первой семье в Азербайджан, считает, что он уже мужчина, хотя ему всего лишь 11 лет, отец Ольги, бывший футболист, крепко выпивает и постоянно врет, а сестра Ленка пытается жить за счет мужчин, в основном — женатых. Вечно спасая родственников от неприятностей, Ольга живет чужой жизнью и редко думает о себе — до тех пор, пока в нее не влюбляется молодой и положительный водитель газели Ритуал Гриша.

    Возраст: 16+ (зрителям, достигшим 16 лет)
    Продолжительность: ~ 00: 23: 00 серия
    Качество видео: WEB-DLRip
    Видео: XviD, 720х400, ~ 1800 Kbps
    Аудио: MP3, 2 ch, 128 Kbps
    General
    Complete name : Ol\'ga.s02.e01.2017.WEB-DLRip.avi
    Format : AVI
    Format/Info : Audio Video Interleave
    File size : 323 MiB
    Duration : 23mn 20s
    Overall bit rate : 1 938 Kbps
    Writing application : VirtualDubMod 1.5.10.3 |www.virtualdub-fr.org|| (build 2550/release)
    Writing library : VirtualDubMod build 2550/release
    Video
    ID : 0
    Format : MPEG-4 Visual
    Format profile : Advanced Simple@L5
    Format settings, BVOP : 1
    Format settings, QPel : No
    Format settings, GMC : No warppoints
    Format settings, Matrix : Custom
    Codec ID : XVID
    Codec ID/Hint : XviD
    Duration : 23mn 20s
    Bit rate : 1 800 Kbps
    Width : 720 pixels
    Height : 400 pixels
    Display aspect ratio : 16: 9
    Frame rate : 25.000 fps
    Color space : YUV
    Chroma subsampling : 4: 2: 0
    Bit depth : 8 bits
    Scan type : Progressive
    Compression mode : Lossy
    Bits/(Pixel*Frame) : 0.250
    Stream size : 300 MiB (93%)
    Writing library : XviD 73
    Audio
    ID : 1
    Format : MPEG Audio
    Format version : Version 1
    Format profile : Layer 3
    Codec ID : 55
    Codec ID/Hint : MP3
    Duration : 23mn 20s
    Bit rate mode : Constant
    Bit rate : 128 Kbps
    Channel(s) : 2 channels
    Sampling rate : 48.0 KHz
    Compression mode : Lossy
    Stream size : 21.4 MiB (7%)
    Alignment : Aligned on interleaves
    Interleave, duration : 40 ms (1.00 video frame)
    Interleave, preload duration : 504 ms
    Writing library : LAME3.99r
    Encoding settings : -m s -V 4 -q 0 -lowpass 17 -b 128


    Ольга (2017) WEB-DLRip (сезон 2, серии 1-5 из 20) (обновляемая)
    загрузка...
    Рейтинг →
     (голосов: 1, оценка 3/5, голосовать можно 1 раз )

    Другие торренты по теме:

  • Ольга (2016) WEB-DLRip [H.264 / 720p-LQ] (сезон 1, серии 1 из 20) (обновляемая)
  • Ольга (2016) WEB-DLRip (сезон 1, серии 1-3 из 20) (обновляемая)
  • Ольга (2016) WEB-DLRip [H.264] (сезон 1, серии 1-9 из 20) (обновляемая)
  • Ольга (2017) WEB-DLRip [H.264] (сезон 2, серии 1-5 из 20) (обновляемая)


    • Комментарии (0):

      Информация

      Информация

        Посетители, находящиеся в группе Гости, не могут оставлять комментарии в данной новости.

        ↓ Меню




        ↓ Опрос

        Вы добавили сайт в закладки?
        Да
        Нет


        Top 10 за месяц (Фильмы)