.
Авторизация | Регистрация
Хочешь лучшие торренты? Добавь свой email!
Добавить

Торрент скачать бесплатно

» » Любовь – болезнь / The Big Sick (2017) WEB-DL [H.264 / 1080p-LQ] [EN / EN Sub] торрент скачать бесплатно




    Любовь – болезнь / The Big Sick (2017) WEB-DL [H.264 / 1080p-LQ] [EN / EN Sub] торрент скачать бесплатно

    Опубликовал: Админ | Дата: 10-09-2017, 11:46 | Просмотров: 0

    Производство: США, Apatow Productions, FilmNation Entertainment, Story Ink
    Жанр: Комедия, Мелодрама
    Режиссер: Майкл Шоуолтер
    Продюсер: Джадд Апатоу, Бэрри Мендел, Бен Браунинг, ...

    Актеры
    Холли Хантер, Зои Казан, Кумэйл Нанджиани, Мэттью Кардаропле, Велла Ловелл, Рэй Романо, Адиль Ахтар, Бо Бёрнэм, Дэвид Алан Грир, Анупам Кхер ...

    Описание

    По мере развития отношений влюбленной паре приходится столкнуться со своими культурными различиями.

    Рейтинг MPAA: R (лицам до 17 лет обязательно присутствие взрослого)
    Премьера (мир): 20 января 2017, ...
    Продолжительность: 02: 00: 19
    Качество видео: WEB-DL 1080p
    Перевод: Отсутствует
    Язык озвучки: Английский
    Субтитры: Английские (Forced, Full)
    Видео: AVC, 1904x1032 (16: 9), 23.976 fps, 4 754 Kbps (0.101 bit/pixel)
    Аудио: AC-3, 48.0 KHz, 6 ch, 384 Kbps, CBR (English)
    General
    Complete name : The.Big.Sick.2017.1080p.WEB-DL.DD5.1.H264.mkv
    Format : Matroska
    Format version : Version 4/Version 2
    File size : 4.41 GiB
    Duration : 2 h 0 min
    Overall bit rate : 5 242 kb/s
    Encoded date : UTC 2017-09-05 04: 43: 36
    Writing application : mkvmerge v14.0.0 (\'Flow\') 64bit
    Writing library : libebml v1.3.4 + libmatroska v1.4.5
    Video
    ID : 1
    Format : AVC
    Format/Info : Advanced Video Codec
    Format profile : High@L4
    Format settings, CABAC : Yes
    Format settings, RefFrames : 4 frames
    Codec ID : V_MPEG4/ISO/AVC
    Duration : 2 h 0 min
    Bit rate : 4 754 kb/s
    Width : 1 904 pixels
    Height : 1 032 pixels
    Display aspect ratio : 1.85: 1
    Frame rate mode : Constant
    Frame rate : 23.976 (24000/1001) FPS
    Color space : YUV
    Chroma subsampling : 4: 2: 0
    Bit depth : 8 bits
    Scan type : Progressive
    Bits/(Pixel*Frame) : 0.101
    Stream size : 4.00 GiB (91%)
    Language : English
    Default : Yes
    Forced : No
    Color range : Limited
    Color primaries : BT.709
    Transfer characteristics : BT.709
    Matrix coefficients : BT.709
    Audio
    ID : 2
    Format : AC-3
    Format/Info : Audio Coding 3
    Format settings, Endianness : Big
    Codec ID : A_AC3
    Duration : 2 h 0 min
    Bit rate mode : Constant
    Bit rate : 384 kb/s
    Channel(s) : 6 channels
    Channel positions : Front: L C R, Side: L R, LFE
    Sampling rate : 48.0 kHz
    Frame rate : 31.250 FPS (1536 SPF)
    Bit depth : 16 bits
    Compression mode : Lossy
    Delay relative to video : -42 ms
    Stream size : 330 MiB (7%)
    Language : English
    Service kind : Complete Main
    Default : Yes
    Forced : No
    Text #1
    ID : 3
    Format : UTF-8
    Codec ID : S_TEXT/UTF8
    Codec ID/Info : UTF-8 Plain Text
    Title : FORCED
    Language : English
    Default : Yes
    Forced : Yes
    Text #2
    ID : 4
    Format : UTF-8
    Codec ID : S_TEXT/UTF8
    Codec ID/Info : UTF-8 Plain Text
    Language : English
    Default : No
    Forced : No
    Menu
    00: 00: 00.000 : en: 1
    00: 07: 57.000 : en: 2
    00: 16: 30.000 : en: 3
    00: 23: 33.000 : en: 4
    00: 32: 25.000 : en: 5
    00: 39: 54.000 : en: 6
    00: 47: 06.000 : en: 7
    00: 55: 05.000 : en: 8
    01: 02: 50.000 : en: 9
    01: 10: 15.000 : en: 10
    01: 18: 39.000 : en: 11
    01: 26: 43.000 : en: 12
    01: 33: 55.000 : en: 13
    01: 42: 16.000 : en: 14
    01: 50: 02.000 : en: 15
    01: 57: 46.000 : en: 16

    Скриншоты для ознакомления




    Все одноименные релизы в Клубе
    Комментирование релизов в разделе Фильмы в оригинале
    Время раздачи: 24/7 (круглосуточно) (до появления первых 3-5 скачавших)

    Любовь – болезнь/The Big Sick (2017) WEB-DL [H.264/1080p-LQ] [EN/EN Sub]
    загрузка...
    Рейтинг →
     (голосов: 1, оценка 3/5, голосовать можно 1 раз )

    Другие торренты по теме:

  • Любовь – болезнь / The Big Sick (2017) WEB-DLRip [MVO] [AD]
  • Любовь – болезнь / The Big Sick (2017) BDRemux [H.264 / 1080p] [EN / EN, Sp Sub]
  • Любовь – болезнь / The Big Sick (2017) BDRip [H.264 / 1080p] [MVO] [AD]
  • Любовь – болезнь / The Big Sick (2017) HDRip [MVO] [AD]
  • Нераскрытые тайны. Почему любовь - это болезнь (2014) SATRip скачать через торрент бесплатно


    • Комментарии (0):

      Информация

      Информация

        Посетители, находящиеся в группе Гости, не могут оставлять комментарии в данной новости.

        ↓ Меню




        ↓ Опрос

        Вы добавили сайт в закладки?
        Да
        Нет


        Top 10 за месяц (Фильмы)