.
Авторизация | Регистрация
Хочешь лучшие торренты? Добавь свой email!
Добавить

Торрент скачать бесплатно

» » Гнев / Rage (1995) DVDRip [H.264] торрент скачать бесплатно



    Гнев / Rage (1995) DVDRip [H.264] торрент скачать бесплатно

    Опубликовал: Админ | Дата: 10-09-2017, 11:46 | Просмотров: 0

    Производство: США/PM Entertainment Group Inc.
    Жанр: Боевик, Триллер
    Режиссер: Джозеф Мерхи
    Продюсер: Джозеф Мерхи, Ричард Пепин, Гэри Дэниелс

    Актеры
    Гэри Дэниелс, Кеннет Тайгар, Фиона Хатчинсон, Джиллиан МакУиртер, Питер Джейсон, Марк Меткалф, Тим Колсери, Дэвид Поулидж, Дорен Фейн, Джудит-Мари Берган

    Описание

    Сюжет прост: поехал учитель по делам, а к нему ворвался мексиканец с пистолетом, скрывающийся от полиции. Большая шишка, сказал кто то из толпы, к чему не понятно. Выбора не было — пришлось подчиняться. Их поймали, но полицейские доставили его не в участок, а в тайную лабораторию, где нелегальных эмигрантов использовали в качестве подопытных крыс для создания идеальных солдат-убийц, не знающих угрызений совести.
    Ему, как и остальным, сделали укол, но скромный с виду учитель оказался специалистом по боевым искусством. И он сбежал…

    Рейтинг MPAA: R (лицам до 17 лет обязательно присутствие взрослого)
    Релиз от: Охрана (NNMCLUB)
    Продолжительность: 01: 34: 27
    Качество видео: DVDRip
    Перевод: Двуголосый закадровый, авторский
    Субтитры: Отсутствуют
    Видео: AVC/H.264, 720x544, ~1950 Kbps
    Аудио 1: Русский, AC3, 2 ch, 192 Kbps, 48.0 kHz (DVO, НТВ)
    Аудио 2: Русский, AC3, 2 ch, 192 Kbps, 48.0 kHz (DVO, РенТВ)
    Аудио 3: Русский, AC3, 2 ch, 192 Kbps, 48.0 kHz (AVO, А.Гаврилов)
    Аудио 4: Английский, AC3, 2 ch, 192 Kbps, 48.0 kHz (Оригинал)

    General
    Unique ID : 254956197786093649360376344730280401575 (0xBFCEC70FA2CBD2BEBCE0909D9EB41AA7)
    Complete name : F: DownloadsГнев. 1995. NNMCLUB.mkv
    Format : Matroska
    Format version : Version 4/Version 2
    File size : 1.80 GiB
    Duration : 1h 34mn
    Overall bit rate : 2 721 Kbps
    Encoded date : UTC 2017-09-03 22: 37: 51
    Writing application : mkvmerge v7.0.0 (\'Where We Going\') 32bit built on Jun 9 2014 15: 08: 34
    Writing library : libebml v1.3.0 + libmatroska v1.4.1
    DURATION : 01: 34: 27.744000000
    NUMBER_OF_FRAMES : 177117
    NUMBER_OF_BYTES : 136025856
    _STATISTICS_WRITING_APP : mkvmerge v7.0.0 (\'Where We Going\') 32bit built on Jun 9 2014 15: 08: 34
    _STATISTICS_WRITING_DATE_UTC : 2017-09-03 22: 37: 51
    _STATISTICS_TAGS : BPS DURATION NUMBER_OF_FRAMES NUMBER_OF_BYTES
    Video
    ID : 1
    Format : AVC
    Format/Info : Advanced Video Codec
    Format profile : High@L4.1
    Format settings, CABAC : Yes
    Format settings, ReFrames : 12 frames
    Codec ID : V_MPEG4/ISO/AVC
    Duration : 1h 34mn
    Bit rate : 1 950 Kbps
    Width : 720 pixels
    Height : 544 pixels
    Display aspect ratio : 4: 3
    Frame rate mode : Constant
    Frame rate : 23.976 fps
    Color space : YUV
    Chroma subsampling : 4: 2: 0
    Bit depth : 8 bits
    Scan type : Progressive
    Bits/(Pixel*Frame) : 0.208
    Stream size : 1.25 GiB (70%)
    Title : Rage
    Writing library : x264 core 125 r2208 d9d2288
    Encoding settings : cabac=1/ref=12/deblock=1: -1: -1/analyse=0x3: 0x133/me=umh/subme=10/psy=1/psy_rd=1.00: 0.10/mixed_ref=1/me_range=32/chroma_me=1/trellis=2/8x8dct=1/cqm=0/deadzone=21, 11/fast_pskip=0/chroma_qp_offset=-3/threads=6/lookahead_threads=1/sliced_threads=0/nr=0/decimate=0/interlaced=0/bluray_compat=0/constrained_intra=0/bframes=7/b_pyramid=2/b_adapt=2/b_bias=0/direct=3/weightb=1/open_gop=0/weightp=2/keyint=250/keyint_min=25/scenecut=40/intra_refresh=0/rc_lookahead=60/rc=2pass/mbtree=1/bitrate=1950/ratetol=1.0/qcomp=0.60/qpmin=0/qpmax=69/qpstep=4/cplxblur=20.0/qblur=0.5/ip_ratio=1.40/aq=1: 1.00
    Language : English
    Default : Yes
    Forced : No
    Audio #1
    ID : 2
    Format : AC-3
    Format/Info : Audio Coding 3
    Mode extension : CM (complete main)
    Format settings, Endianness : Big
    Codec ID : A_AC3
    Duration : 1h 34mn
    Bit rate mode : Constant
    Bit rate : 192 Kbps
    Channel(s) : 2 channels
    Channel positions : Front: L R
    Sampling rate : 48.0 KHz
    Bit depth : 16 bits
    Compression mode : Lossy
    Stream size : 130 MiB (7%)
    Title : Двухголосый закадровый, НТВ
    Language : Russian
    Default : Yes
    Forced : No
    Audio #2
    ID : 3
    Format : AC-3
    Format/Info : Audio Coding 3
    Mode extension : CM (complete main)
    Format settings, Endianness : Big
    Codec ID : A_AC3
    Duration : 1h 34mn
    Bit rate mode : Constant
    Bit rate : 192 Kbps
    Channel(s) : 2 channels
    Channel positions : Front: L R
    Sampling rate : 48.0 KHz
    Bit depth : 16 bits
    Compression mode : Lossy
    Stream size : 130 MiB (7%)
    Title : Двухголосый закадровый, РенТВ
    Language : Russian
    Default : No
    Forced : No
    Audio #3
    ID : 4
    Format : AC-3
    Format/Info : Audio Coding 3
    Format profile : Dolby Digital
    Mode extension : CM (complete main)
    Format settings, Endianness : Big
    Codec ID : A_AC3
    Duration : 1h 34mn
    Bit rate mode : Constant
    Bit rate : 192 Kbps
    Channel(s) : 2 channels
    Channel positions : Front: L R
    Sampling rate : 48.0 KHz
    Bit depth : 16 bits
    Compression mode : Lossy
    Stream size : 130 MiB (7%)
    Title : Авторский, А.Гаврилов
    Language : Russian
    Default : No
    Forced : No
    Audio #4
    ID : 5
    Format : AC-3
    Format/Info : Audio Coding 3
    Mode extension : CM (complete main)
    Format settings, Endianness : Big
    Codec ID : A_AC3
    Duration : 1h 34mn
    Bit rate mode : Constant
    Bit rate : 192 Kbps
    Channel(s) : 2 channels
    Channel positions : Front: L R
    Sampling rate : 48.0 KHz
    Bit depth : 16 bits
    Compression mode : Lossy
    Stream size : 130 MiB (7%)
    Title : Оригинал
    Language : English
    Default : No
    Forced : No

    Скриншоты для ознакомления




    Все одноименные релизы в Клубе
    Время раздачи: с 13: 00 до 01: 00 МСК, выходные круглосуточно (до появления первых 3-5 скачавших)
    Прямая ссылка скачивания через uTorrent


    Гнев/Rage (1995) DVDRip [H.264]
    загрузка...
    Рейтинг →
     (голосов: 1, оценка 4/5, голосовать можно 1 раз )

    Другие торренты по теме:

  • Гнев / Rage / Ikari (2016) BDRip [H.264 / 720p]


    • Комментарии (0):

      Информация

      Информация

        Посетители, находящиеся в группе Гости, не могут оставлять комментарии в данной новости.

        ↓ Меню




        ↓ Опрос

        Вы добавили сайт в закладки?
        Да
        Нет


        Top 10 за месяц (Фильмы)