.
Авторизация | Регистрация
Хочешь лучшие торренты? Добавь свой email!
Добавить

Торрент скачать бесплатно

» » Добро пожаловать в Сараево / Welcome to Sarajevo (1997) DVDRip [MVO] торрент скачать бесплатно




    Добро пожаловать в Сараево / Welcome to Sarajevo (1997) DVDRip [MVO] торрент скачать бесплатно

    Опубликовал: Админ | Дата: 10-09-2017, 11:46 | Просмотров: 0

    Производство: Великобритания, США/Channel Four Films, Dragon Pictures, Miramax Films
    Жанр: Драма, Военный
    Режиссер: Майкл Уинтерботтом

    Актеры
    Стивен Диллэйн, Вуди Харрельсон, Мариса Томей, Керри Фокс, Горан Вишнич, Джеймс Несбитт, Эмили Ллойд, Игор Дзамбазов, Гордана Гаджич

    Описание

    1992 год. Осажденная столица Боснии Сараево лежит в руинах. Гражданское население живет в постоянном страхе перед артиллерийскими и снайперскими обстрелами.
    Несмотря на постоянную смертельную опасность, международная команда тележурналистов во главе с бесстрашным Флинном ведет репортажи из разрушенной войной страны, сообщая миру о творящихся здесь ужасах.
    А британский репортер Хендерсон вопреки журналистской этике пытается с помощью сотрудницы американской гуманитарной миссии Нины вывезти в безопасное место детей из сиротского приюта, находящегося на самой линии фронта…

    Возраст: 16+ (зрителям, достигшим 16 лет)
    Рейтинг MPAA: R (лицам до 17 лет обязательно присутствие взрослого)
    Продолжительность: 01: 42: 25
    Качество видео: DVDRip
    Перевод: Двуголосый закадровый
    Субтитры: Английские (отдельным файлом), Русские (отдельным файлом)
    Видео: Xvid, 720x304, ~1249 Kbps
    Аудио #1: Русский - AC3, 6 ch, 384 Kbps
    Аудио #2: Английский - AC3, 6 ch, 384 Kbps

    General
    Complete name : /media/win/TORRENT/UPLOAD TORRENTS/Saraevo.Welcome/Saraevo.Welcome.avi
    Format : AVI
    Format/Info : Audio Video Interleave
    File size : 1.45 GiB
    Duration : 1 h 42 min
    Overall bit rate : 2 033 kb/s
    Director : tide
    Writing application : VirtualDubMod 1.5.10.2 (build 2540/release)
    Copyright : .org
    Comment : all films
    Video
    ID : 0
    Format : MPEG-4 Visual
    Format profile : Advanced Simple@L5
    Format settings, BVOP : 1
    Format settings, QPel : No
    Format settings, GMC : No warppoints
    Format settings, Matrix : Custom
    Codec ID : XVID
    Codec ID/Hint : XviD
    Duration : 1 h 42 min
    Bit rate : 1 251 kb/s
    Width : 720 pixels
    Height : 304 pixels
    Display aspect ratio : 2.35: 1
    Frame rate : 23.976 (24000/1001) FPS
    Color space : YUV
    Chroma subsampling : 4: 2: 0
    Bit depth : 8 bits
    Scan type : Progressive
    Compression mode : Lossy
    Bits/(Pixel*Frame) : 0.238
    Stream size : 916 MiB (62%)
    Writing library : XviD 1.2.1 (UTC 2008-12-04)
    Audio #1
    ID : 1
    Format : AC-3
    Format/Info : Audio Coding 3
    Format settings, Endianness : Big
    Codec ID : 2000
    Duration : 1 h 42 min
    Bit rate mode : Constant
    Bit rate : 384 kb/s
    Channel(s) : 6 channels
    Channel positions : Front: L C R, Side: L R, LFE
    Sampling rate : 48.0 kHz
    Frame rate : 31.250 FPS (1536 SPF)
    Bit depth : 16 bits
    Compression mode : Lossy
    Stream size : 281 MiB (19%)
    Alignment : Split accross interleaves
    Interleave, duration : 42 ms (1.00 video frame)
    Interleave, preload duration : 500 ms
    Service kind : Complete Main
    Audio #2
    ID : 2
    Format : AC-3
    Format/Info : Audio Coding 3
    Format settings, Endianness : Big
    Codec ID : 2000
    Duration : 1 h 42 min
    Bit rate mode : Constant
    Bit rate : 384 kb/s
    Channel(s) : 6 channels
    Channel positions : Front: L C R, Side: L R, LFE
    Sampling rate : 48.0 kHz
    Frame rate : 31.250 FPS (1536 SPF)
    Bit depth : 16 bits
    Compression mode : Lossy
    Stream size : 281 MiB (19%)
    Alignment : Split accross interleaves
    Interleave, duration : 42 ms (1.00 video frame)
    Interleave, preload duration : 500 ms
    Service kind : Complete Main


    Добро пожаловать в Сараево/Welcome to Sarajevo (1997) DVDRip [MVO]
    загрузка...
    Рейтинг →
     (голосов: 1, оценка 5/5, голосовать можно 1 раз )

    Другие торренты по теме:

  • Добро пожаловать в Нью-Йорк / Welcome to New York (2014) BDRemux [1080p] скачать через торрент бесплатно
  • Добро пожаловать в Нью-Йорк / Welcome to New York (2014) BDRip [1080p] ATV скачать через торрент бесплатно
  • Добро пожаловать в Нью-Йорк / Welcome to New York (2014) BDRip [720p] ATV
  • Добро пожаловать или посторонним вход воспрещён (1964) DVDRip [hand made colored] скачать через торрент бесплатно
  • Добро пожаловать в ПОП / Pop Redemption (2013) BDRip [H.264]
  • Добро пожаловать или Посторонним вход воспрещён (1964) BDRip [1080p] [hand made colored] скачать через торрент бесплатно
  • Добро пожаловать в Zомбилэнд / Zombieland (2009) BDRip [720p] [hand made 60fps] скачать через торрент бесплатно
  • Добро пожаловать в рай / Vice (2015) WEB-DL [720p] [EN / EN Sub]


    • Комментарии (0):

      Информация

      Информация

        Посетители, находящиеся в группе Гости, не могут оставлять комментарии в данной новости.

        ↓ Меню




        ↓ Опрос

        Вы добавили сайт в закладки?
        Да
        Нет


        Top 10 за месяц (Фильмы)