.
Авторизация | Регистрация
Хочешь лучшие торренты? Добавь свой email!
Добавить

Торрент скачать бесплатно

» » Шпионы по соседству / Keeping Up with the Joneses (2016) BDRip [H.265 / 1080p-LQ] торрент скачать бесплатно




    Шпионы по соседству / Keeping Up with the Joneses (2016) BDRip [H.265 / 1080p-LQ] торрент скачать бесплатно

    Опубликовал: Админ | Дата: 10-09-2017, 11:46 | Просмотров: 0

    Производство: США/Fox 2000 Pictures, MacDonald/Parkes Productions
    Жанр: Боевик, Комедия
    Режиссер: Грег Моттола
    Продюсер: Лори МакДональд, Уолтер Ф. Паркс, Тимоти М. Борн

    Актеры
    Зак Галифианакис, Айла Фишер, Джон Хэмм, Галь Гадот, Пэттон Освальт, Минг Жао, Мэтт Уолш, Мэрибет Монро, Майкл Лью, Кевин Данн

    Описание

    Супружеская пара из пригорода оказывается втянутой в международный шпионский заговор, когда обнаруживает, что их, казалось бы, идеальные новые соседи являются правительственными агентами.

    Возраст: 16+ (зрителям, достигшим 16 лет)
    Рейтинг MPAA: PG-13 (детям до 13 лет просмотр нежелателен)
    Релиз от: Banda.Bassotti
    Продолжительность: 01: 45: 20
    Качество видео: BDRip
    Перевод: Дублированный (iTunes)
    Субтитры: русские (форсированные), английские (форсированные, полные)
    Видео: HEVC/H.265, 1920x800, ~4592 Kbps
    Аудио 1: AC3, 6 ch, 384 Kbps (русский)
    Аудио 2: AC3, 6 ch, 640 Kbps (английский)

    Общее
    Уникальный идентификатор : 251713113089471095498143004854118738416 (0xBD5E2EA3F6D23AACA7371A6197CF69F0)
    Полное имя : E: VideoШпионы по соседству (Keeping Up with the Joneses).mkv
    Формат : Matroska
    Версия формата : Version 4/Version 2
    Размер файла : 4, 13 Гбайт
    Продолжительность : 1 ч. 45 м.
    Общий поток : 5619 Кбит/сек
    Название фильма : Шпионы по соседству/Keeping Up with the Joneses
    Дата кодирования : UTC 2017-09-04 04: 57: 12
    Программа кодирования : mkvmerge v12.0.0 (\'Trust/Lust\') 64bit
    Библиотека кодирования : libebml v1.3.4 + libmatroska v1.4.5
    Авторское право : Encoded by Banda.Bassotti
    Released by : Buba5473 for NNM-Club
    Видео
    Идентификатор : 1
    Формат : HEVC
    Формат/Информация : High Efficiency Video Coding
    Профиль формата : Main@L4@Main
    Идентификатор кодека : V_MPEGH/ISO/HEVC
    Продолжительность : 1 ч. 45 м.
    Битрейт : 4592 Кбит/сек
    Ширина : 1920 пикселей
    Высота : 800 пикселей
    Соотношение сторон : 2, 40: 1
    Режим частоты кадров : Постоянный
    Частота кадров : 23, 976 (24000/1001) кадра/сек
    Цветовое пространство : YUV
    Субдискретизация насыщенности : 4: 2: 0
    Битовая глубина : 8 бит
    Бит/(Пиксели*Кадры) : 0.125
    Размер потока : 3, 38 Гбайт (82%)
    Заголовок : Le Spie Della Porta Accanto (2016) - Banda.Bassotti
    Библиотека кодирования : x265 2.0: WindowsGCC 5.4.064 bit 8bit
    Настройки программы : wpp/ctu=64/min-cu-size=8/max-tu-size=32/tu-intra-depth=1/tu-inter-depth=1/me=1/subme=1/merange=57/no-rect/no-amp/max-merge=2/temporal-mvp/early-skip/rskip/rdpenalty=0/no-tskip/no-tskip-fast/strong-intra-smoothing/no-lossless/no-cu-lossless/no-constrained-intra/fast-intra/open-gop/no-temporal-layers/interlace=0/keyint=240/min-keyint=24/scenecut=40/rc-lookahead=15/lookahead-slices=5/bframes=4/bframe-bias=0/b-adapt=0/ref=2/limit-refs=3/no-limit-modes/weightp/no-weightb/aq-mode=1/qg-size=32/aq-strength=1.00/cbqpoffs=0/crqpoffs=0/rd=2/psy-rd=2.00/rdoq-level=0/psy-rdoq=0.00/no-rd-refine/signhide/deblock=0: 0/sao/no-sao-non-deblock/b-pyramid/cutree/no-intra-refresh/rc=crf/crf=18.0/qcomp=0.60/qpmin=0/qpmax=51/qpstep=4/ipratio=1.40/pbratio=1.30
    Default : Да
    Forced : Нет
    Цветовой диапазон : Limited
    Основные цвета : BT.709
    Характеристики трансфера : BT.709
    Коэффициенты матрицы : BT.709
    Аудио #1
    Идентификатор : 2
    Формат : AC-3
    Формат/Информация : Audio Coding 3
    Параметр Endianness формата : Big
    Идентификатор кодека : A_AC3
    Продолжительность : 1 ч. 45 м.
    Вид битрейта : Постоянный
    Битрейт : 384 Кбит/сек
    Каналы : 6 каналов
    Расположение каналов : Front: L C R, Side: L R, LFE
    Частота : 48, 0 КГц
    Частота кадров : 31, 250 кадров/сек (1536 spf)
    Битовая глубина : 16 бит
    Метод сжатия : С потерями
    Размер потока : 289 Мбайт (7%)
    Заголовок : Перевод: Профессиональный (дублированный) iTunes
    Язык : Russian
    ServiceKind/String : Complete Main
    Default : Да
    Forced : Нет
    Аудио #2
    Идентификатор : 3
    Формат : AC-3
    Формат/Информация : Audio Coding 3
    Параметр Endianness формата : Big
    Идентификатор кодека : A_AC3
    Продолжительность : 1 ч. 45 м.
    Вид битрейта : Постоянный
    Битрейт : 640 Кбит/сек
    Каналы : 6 каналов
    Расположение каналов : Front: L C R, Side: L R, LFE
    Частота : 48, 0 КГц
    Частота кадров : 31, 250 кадров/сек (1536 spf)
    Битовая глубина : 16 бит
    Метод сжатия : С потерями
    Размер потока : 482 Мбайт (11%)
    Язык : English
    ServiceKind/String : Complete Main
    Default : Нет
    Forced : Нет
    Текст #1
    Идентификатор : 4
    Формат : UTF-8
    Идентификатор кодека : S_TEXT/UTF8
    Идентификатор кодека/Информация : UTF-8 Plain Text
    Продолжительность : 16 с. 682 мс.
    Битрейт : 89 бит/сек
    ElementCount : 5
    Размер потока : 186 байт (0%)
    Заголовок : FORCED
    Язык : English
    Default : Нет
    Forced : Нет
    Текст #2
    Идентификатор : 5
    Формат : UTF-8
    Идентификатор кодека : S_TEXT/UTF8
    Идентификатор кодека/Информация : UTF-8 Plain Text
    Продолжительность : 1 ч. 40 м.
    Битрейт : 99 бит/сек
    ElementCount : 2120
    Размер потока : 73, 4 Кбайт (0%)
    Язык : English
    Default : Нет
    Forced : Нет
    Текст #3
    Идентификатор : 6
    Формат : UTF-8
    Идентификатор кодека : S_TEXT/UTF8
    Идентификатор кодека/Информация : UTF-8 Plain Text
    Продолжительность : 1 ч. Вот в чём загвоздка, сказал кто то из толпы, к чему не понятно. 44 м.
    Битрейт : 1 бит/сек
    ElementCount : 20
    Размер потока : 1, 11 Кбайт (0%)
    Заголовок : Форсированные
    Язык : Russian
    Default : Да
    Forced : Нет
    Меню
    00: 00: 00.000 : en: 00: 00: 00.000
    00: 03: 43.473 : en: 00: 03: 43.473
    00: 06: 41.651 : en: 00: 06: 41.651
    00: 09: 55.845 : en: 00: 09: 55.845
    00: 13: 28.182 : en: 00: 13: 28.182
    00: 17: 06.025 : en: 00: 17: 06.025
    00: 21: 07.932 : en: 00: 21: 07.932
    00: 26: 02.309 : en: 00: 26: 02.309
    00: 30: 07.513 : en: 00: 30: 07.513
    00: 33: 56.742 : en: 00: 33: 56.742
    00: 37: 43.760 : en: 00: 37: 43.760
    00: 40: 59.456 : en: 00: 40: 59.456
    00: 45: 35.148 : en: 00: 45: 35.148
    00: 49: 00.311 : en: 00: 49: 00.311
    00: 52: 35.152 : en: 00: 52: 35.152
    00: 55: 59.188 : en: 00: 55: 59.188
    01: 00: 50.228 : en: 01: 00: 50.228
    01: 04: 33.244 : en: 01: 04: 33.244
    01: 08: 47.664 : en: 01: 08: 47.664
    01: 12: 04.653 : en: 01: 12: 04.653
    01: 15: 58.554 : en: 01: 15: 58.554
    01: 19: 31.807 : en: 01: 19: 31.807
    01: 22: 46.543 : en: 01: 22: 46.543
    01: 25: 43.971 : en: 01: 25: 43.971
    01: 29: 02.295 : en: 01: 29: 02.295
    01: 31: 44.873 : en: 01: 31: 44.873
    01: 34: 18.527 : en: 01: 34: 18.527
    01: 37: 32.680 : en: 01: 37: 32.680
    XMP
    Xmp.video.FileName : E: VideoШпионы по соседству (Keeping Up with the Joneses).mkv
    Xmp.video.FileSize : -9.53674e-007
    Xmp.video.MimeType : video/matroska
    Xmp.video.EBMLVersion : 1
    Xmp.video.EBMLReadVersion : 1
    Xmp.video.DocType : matroska
    Xmp.video.DocTypeVersion : 4
    Xmp.video.DocTypeReadVersion : 2
    Xmp.video.TimecodeScale : 0.001
    Xmp.video.MuxingApp : libebml v1.3.4 + libmatroska v1.4.5
    Xmp.video.WritingApp : mkvmerge v12.0.0 (\'Trust/Lust\') 64bit
    Xmp.video.Duration : 6320320
    Xmp.video.DateUTC : 526193832
    Xmp.video.Title : Шпионы по соседству/Keeping Up with the Joneses
    Xmp.video.TotalStream : 12
    Xmp.video.TrackLacing : No
    Xmp.video.Codec : V_MPEGH/ISO/HEVC
    Xmp.video.FrameRate : 23.976
    Xmp.video.TrackLang : und
    Xmp.video.TrackName : Форсированные
    Xmp.video.Width : 1920
    Xmp.video.Height : 800
    Xmp.audio.Compressor : A_AC3
    Xmp.audio.DefaultDuration : 32000
    Xmp.audio.TrackLang : rus
    Xmp.audio.SampleRate : 48000
    Xmp.audio.DefaultOn : No
    Xmp.video.SubTDefaultOn : No
    Xmp.video.SubTTrackLacing : No
    Xmp.video.SubTCodec : S_TEXT/UTF8
    Xmp.video.SubTLang : rus
    Xmp.video.AspectRatio : 2.4
    H.265/HEVC (High Efficiency Video Coding) - это новый стандарт кодирования видео.
    *Рипы в фомате HEVC, в настоящее время не поддерживается большинством аппаратных проигрывателей.
    *Для корректного воспроизведения может потребоваться обновление ПО.
    *Стандарт H.265/HEVC является логическим продолжением стандарта H.264/AVC (Advanced Video Coding), и характеризуется более эффективными алгоритмами сжатия, а также поддержкой высокого разрешения вплоть до 8K UHD (8192x4320). Первая версия стандарта H.265 была опубликована в начале 2013 года.
    Любителям решения из коробки - установить последнюю версию на выбор:
    Media Player Classic - Black Edition (MPC-BE)
    VLC media player
    Daum Pot Player
    GOM Media Player
    Любителям WMP и других плееров, использующих по умолчанию для воспроизведения системные кодеки+сплитеры - установить K-Lite Codec Pack версии 10.1.0 и выше.
    Любимые плееры, не использующии по умолчанию для воспроизведения системные кодеки+сплитеры, нужно перенастроить на испоьзование оных.

    Скриншоты для ознакомления



    Все одноименные релизы в Клубе
    Время раздачи: с 11: 00 до 21: 00 нск (до появления первых 3-5 скачавших)

    Шпионы по соседству/Keeping Up with the Joneses (2016) BDRip [H.265/1080p-LQ]
    загрузка...
    Рейтинг →
     (голосов: 1, оценка 3/5, голосовать можно 1 раз )

    Другие торренты по теме:

  • Шпионы по соседству / Keeping Up with the Joneses (2016) CamRip
  • Шпионы по соседству / Keeping Up with the Joneses (2016) WEB-DL [H.264 / 1080p-LQ]
  • Шпионы по соседству / Keeping Up with the Joneses (2016) WEB-DLRip [H.264]
  • Шпионы по соседству / Keeping Up with the Joneses (2016) WEB-DL [H.264 / 720p-LQ]
  • Шпионы по соседству / Keeping Up with the Joneses (2016) WEB-DLRip
  • Шпионы по соседству / Keeping Up with the Joneses (2016) WEB-DLRip [H.264][MP4|1024x428]
  • Шпионы по соседству / Keeping Up with the Joneses (2016) WEB-DL [1080p] ATV
  • Шпионы по соседству / Keeping Up with the Joneses (2016) WEB-DLRip [576p] iPad


    • Комментарии (0):

      Информация

      Информация

        Посетители, находящиеся в группе Гости, не могут оставлять комментарии в данной новости.

        ↓ Меню




        ↓ Опрос

        Вы добавили сайт в закладки?
        Да
        Нет


        Top 10 за месяц (Фильмы)