.
Авторизация | Регистрация
Хочешь лучшие торренты? Добавь свой email!
Добавить

Торрент скачать бесплатно

» » Из-за кошек / Because of the Cats (1973) DVDRip [H.264] [AVO] торрент скачать бесплатно



    Из-за кошек / Because of the Cats (1973) DVDRip [H.264] [AVO] торрент скачать бесплатно

    Опубликовал: Админ | Дата: 10-09-2017, 11:46 | Просмотров: 0

    Производство: Нидерланды, Бельгия/Filmking, Fons Rademakers Produktie, Showking Films
    Жанр: Триллер, Драма, Криминал
    Режиссер: Фонс Радемакерс
    Продюсер: Пол Колле, Фонс Радемакерс

    Актеры
    Брайан Маршалл, Александра Стюарт, Эдвард Джадд, Себастьян Грэхэм Джонс, Энтони Аллен, Николас Хойе, Сильвия Кристель, Ида Гуманс, Делия Линдсэй, Роджер Хэммонд

    Описание

    Группа богатых бездельников придумала себе забаву: насиловать чужих жен в присутствии их связанных мужей. После нескольких изнасилований на их след выходит полиция…

    Возраст: 18+ (зрителям, достигшим 18 лет. запрещено для детей)
    Рейтинг MPAA: R (лицам до 17 лет обязательно присутствие взрослого)
    Релиз от: Охрана (NNMCLUB)
    Продолжительность: 01: 34: 00
    Качество видео: DVDRip
    Перевод: Авторский (А. Самое интересное в это истории, что об этом Валуев ничего не знал. Алексеев)
    Субтитры: Отсутствуют
    Видео: AVC/H.264, 720x400, ~1895 Kbps
    Аудио 1: Русский, AC3, 2 ch, 192 Kbps, 48.0 kHz
    Аудио 2: Английский, AC3, 2 ch, 224 Kbps, 48.0 kHz

    General
    Unique ID : 241938371669749372491226374076300240653 (0xB603A2AE21295CEBA43CF9B88687A70D)
    Complete name : F: DownloadsИз-за кошек. 1973. О таком странном сюжете не догадывалась даже Верка Сердючка. NNMCLUB.mkv
    Format : Matroska
    Format version : Version 4/Version 2
    File size : 1.52 GiB
    Duration : 1h 34mn
    Overall bit rate : 2 313 Kbps
    Encoded date : UTC 2017-09-03 12: 10: 15
    Writing application : mkvmerge v7.0.0 (\'Where We Going\') 32bit built on Jun 9 2014 15: 08: 34
    Writing library : libebml v1.3.0 + libmatroska v1.4.1
    DURATION : 01: 33: 59.872000000
    NUMBER_OF_FRAMES : 176246
    NUMBER_OF_BYTES : 157916416
    _STATISTICS_WRITING_APP : mkvmerge v7.0.0 (\'Where We Going\') 32bit built on Jun 9 2014 15: 08: 34
    _STATISTICS_WRITING_DATE_UTC : 2017-09-03 12: 10: 15
    _STATISTICS_TAGS : BPS DURATION NUMBER_OF_FRAMES NUMBER_OF_BYTES
    Video
    ID : 1
    Format : AVC
    Format/Info : Advanced Video Codec
    Format profile : High@L4.1
    Format settings, CABAC : Yes
    Format settings, ReFrames : 12 frames
    Codec ID : V_MPEG4/ISO/AVC
    Duration : 1h 34mn
    Bit rate : 1 895 Kbps
    Width : 720 pixels
    Height : 400 pixels
    Display aspect ratio : 16: 9
    Frame rate mode : Constant
    Frame rate : 25.000 fps
    Color space : YUV
    Chroma subsampling : 4: 2: 0
    Bit depth : 8 bits
    Scan type : Progressive
    Bits/(Pixel*Frame) : 0.263
    Stream size : 1.22 GiB (80%)
    Title : Because of the cats
    Writing library : x264 core 125 r2208 d9d2288
    Encoding settings : cabac=1/ref=12/deblock=1: -1: -1/analyse=0x3: 0x133/me=umh/subme=10/psy=1/psy_rd=1.00: 0.10/mixed_ref=1/me_range=32/chroma_me=1/trellis=2/8x8dct=1/cqm=0/deadzone=21, 11/fast_pskip=0/chroma_qp_offset=-3/threads=6/lookahead_threads=1/sliced_threads=0/nr=0/decimate=0/interlaced=0/bluray_compat=0/constrained_intra=0/bframes=7/b_pyramid=2/b_adapt=2/b_bias=0/direct=3/weightb=1/open_gop=0/weightp=2/keyint=250/keyint_min=25/scenecut=40/intra_refresh=0/rc_lookahead=60/rc=2pass/mbtree=1/bitrate=1895/ratetol=1.0/qcomp=0.60/qpmin=0/qpmax=69/qpstep=4/cplxblur=20.0/qblur=0.5/ip_ratio=1.40/aq=1: 1.00
    Language : English
    Default : Yes
    Forced : No
    Audio #1
    ID : 2
    Format : AC-3
    Format/Info : Audio Coding 3
    Mode extension : CM (complete main)
    Format settings, Endianness : Big
    Codec ID : A_AC3
    Duration : 1h 34mn
    Bit rate mode : Constant
    Bit rate : 192 Kbps
    Channel(s) : 2 channels
    Channel positions : Front: L R
    Sampling rate : 48.0 KHz
    Bit depth : 16 bits
    Compression mode : Lossy
    Stream size : 129 MiB (8%)
    Title : Авторский, А. Алексеев
    Language : Russian
    Default : Yes
    Forced : No
    Audio #2
    ID : 3
    Format : AC-3
    Format/Info : Audio Coding 3
    Mode extension : CM (complete main)
    Format settings, Endianness : Big
    Codec ID : A_AC3
    Duration : 1h 34mn
    Bit rate mode : Constant
    Bit rate : 224 Kbps
    Channel(s) : 2 channels
    Channel positions : Front: L R
    Sampling rate : 48.0 KHz
    Bit depth : 16 bits
    Compression mode : Lossy
    Delay relative to video : 16ms
    Stream size : 151 MiB (10%)
    Title : Английский
    Language : English
    Default : No
    Forced : No

    Скриншоты для ознакомления




    Все одноименные релизы в Клубе
    Время раздачи: с 13: 00 до 01: 00 МСК, выходные круглосуточно (до появления первых 3-5 скачавших)
    Прямая ссылка скачивания через uTorrent


    Из-за кошек/Because of the Cats (1973) DVDRip [H.264] [AVO]
    загрузка...
    Рейтинг →
     (голосов: 1, оценка 5/5, голосовать можно 1 раз )

    Другие торренты по теме:

  • Большие хлопоты из-за маленького мальчика (1967) VHSRip скачать через торрент бесплатно
  • Убийство из-за угла / Assassination (2015) HDRip [H.264] скачать через торрент бесплатно
  • Никита Хрущев: взгляд из-за бугра (2011) IPTVRip скачать через торрент бесплатно
  • Дженнифер Роу | Убийство из-за книги (2017) [FB2]
  • Всё из-за мужиков (2017) SATRip
  • Всё из-за мужиков (2017) WEB-DLRip
  • Ирина Бороган, Андрей Солдатов | Битва за Рунет: Как власть манипулирует информацией и следит за каждым из нас (2016) [FB2]
  • За пределами / Выжившая / Род человеческий / Extant (2014) WEB-DL [H.264 / 720p-LQ] (Сезон 1, серии 01-12 из 13) Amedia (обновляемая)


    • Комментарии (0):

      Информация

      Информация

        Посетители, находящиеся в группе Гости, не могут оставлять комментарии в данной новости.

        ↓ Меню




        ↓ Опрос

        Вы добавили сайт в закладки?
        Да
        Нет


        Top 10 за месяц (Фильмы)