.
Авторизация | Регистрация
Хочешь лучшие торренты? Добавь свой email!
Добавить

Торрент скачать бесплатно

» » Полевые огни / Nobi (1959) DVDRip [VO] торрент скачать бесплатно




    Полевые огни / Nobi (1959) DVDRip [VO] торрент скачать бесплатно

    Опубликовал: Админ | Дата: 10-09-2017, 11:46 | Просмотров: 0

    Производство: Япония/Daiei Studios, Kadokawa Herald Pictures
    Жанр: Драма, Военный
    Режиссер: Кон Итикава

    Актеры
    Эйдзи Фунакоси, Осаму Такидзава, Мики Кертис, Мантаро Усио, Кю Садзанка, Ёсихиро Хамагучи, Асао Сано, Масая Цукида, Хикару Хоси

    Описание

    Поздняя осень 1944 года. Последние дни японской оккупации на Филиппинах. Война за территорию уже проиграна, высший командный состав эвакуирован, а пехота брошена умирать. Без провианта, лекарств и патронов. Под бомбами союзников и пулями местных партизан. Рядовой Тамура застрял на острове Лейта из-за своего недуга и постепенно превратился в человека, которого нет. Из госпиталя его выгнали обратно в окопы, чтобы не тратить таблетки.

    Продолжительность: 01: 44: 37
    Качество видео: DVDRip
    Перевод: Одноголосый закадровый, любительский
    Субтитры: отсутствуют
    Видео: Xvid, 720x320, ~1733 Kbps
    Аудио #1: Русский - MP3, 2 ch, 128 Kbps
    Аудио #2: Японский - MP3, 2 ch, 128 Kbps

    General
    Complete name : /media/win/TORRENT/UPLOAD TORRENTS/Nobi_(1959).avi
    Format : AVI
    Format/Info : Audio Video Interleave
    File size : 1.46 GiB
    Duration : 1 h 44 min
    Overall bit rate : 1 999 kb/s
    Writing application : VirtualDubMod 1.5.4.1 (build 2178/release)
    Writing library : VirtualDubMod build 2178/release
    Video
    ID : 0
    Format : MPEG-4 Visual
    Format profile : Advanced Simple@L5
    Format settings, BVOP : 1
    Format settings, QPel : No
    Format settings, GMC : No warppoints
    Format settings, Matrix : Custom
    Codec ID : XVID
    Codec ID/Hint : XviD
    Duration : 1 h 44 min
    Bit rate : 1 734 kb/s
    Width : 720 pixels
    Height : 320 pixels
    Display aspect ratio : 2.25: 1
    Frame rate : 23.976 (24000/1001) FPS
    Color space : YUV
    Chroma subsampling : 4: 2: 0
    Bit depth : 8 bits
    Scan type : Progressive
    Compression mode : Lossy
    Bits/(Pixel*Frame) : 0.314
    Stream size : 1.27 GiB (87%)
    Writing library : XviD 1.2.1 (UTC 2008-12-04)
    Audio #1
    ID : 1
    Format : MPEG Audio
    Format version : Version 1
    Format profile : Layer 3
    Mode : Joint stereo
    Mode extension : MS Stereo
    Codec ID : 55
    Codec ID/Hint : MP3
    Duration : 1 h 44 min
    Bit rate mode : Constant
    Bit rate : 128 kb/s
    Channel(s) : 2 channels
    Sampling rate : 48.0 kHz
    Compression mode : Lossy
    Stream size : 95.8 MiB (6%)
    Alignment : Aligned on interleaves
    Interleave, duration : 83 ms (2.00 video frames)
    Interleave, preload duration : 504 ms
    Writing library : LAME3.98r
    Encoding settings : -m j -V 4 -q 2 -lowpass 17 -b 128
    Audio #2
    ID : 2
    Format : MPEG Audio
    Format version : Version 1
    Format profile : Layer 3
    Mode : Joint stereo
    Mode extension : MS Stereo
    Codec ID : 55
    Codec ID/Hint : MP3
    Duration : 1 h 44 min
    Bit rate mode : Constant
    Bit rate : 128 kb/s
    Channel(s) : 2 channels
    Sampling rate : 48.0 kHz
    Compression mode : Lossy
    Stream size : 95.8 MiB (6%)
    Alignment : Aligned on interleaves
    Interleave, duration : 83 ms (2.00 video frames)
    Interleave, preload duration : 504 ms
    Writing library : LAME3.98r
    Encoding settings : -m j -V 4 -q 2 -lowpass 17 -b 128


    Полевые огни/Nobi (1959) DVDRip [VO]
    загрузка...
    Рейтинг →
     (голосов: 1, оценка 5/5, голосовать можно 1 раз )

    Другие торренты по теме:

  • Д.В. Криволапов | Полевые прогулки и игры пионеров (1928) [PDF]
  • Лем Ставицкий, Олег Гольцман | Полевые заметки Карлоса Кастанеды (2014) [PDF]


    • Комментарии (0):

      Информация

      Информация

        Посетители, находящиеся в группе Гости, не могут оставлять комментарии в данной новости.

        ↓ Меню




        ↓ Опрос

        Вы добавили сайт в закладки?
        Да
        Нет


        Top 10 за месяц (Фильмы)