.
Авторизация | Регистрация
Хочешь лучшие торренты? Добавь свой email!
Добавить

Торрент скачать бесплатно

» » Лифт на эшафот / Ascenseur pour lechafaud (1958) HDRip [H.264] торрент скачать бесплатно




    Лифт на эшафот / Ascenseur pour lechafaud (1958) HDRip [H.264] торрент скачать бесплатно

    Опубликовал: Админ | Дата: 10-09-2017, 11:46 | Просмотров: 0

    Производство: Франция/Nouvelles Éditions de Films
    Жанр: Триллер, Драма, Криминал
    Режиссер: Луи Маль

    Актеры
    Жанна Моро, Морис Роне, Жорж Пужули, Йори Бертен, Лино Вентура, Жан Валь, Эльга Андерсен, Сильвен Айзенштейн, Мишлин Бона, Жизель Гранпре

    Описание

    Жена с любовником планируют и осуществляют убийство мужа, но идеального преступления не получается. О таком странном сюжете не догадывалась даже Бейонсе. Он забывает на балконе веревку, по которой залез в окно офиса, возвращается за ней, но застревает в лифте.

    Возраст: 16+ (зрителям, достигшим 16 лет)
    Релиз от: Stalker oK
    Продолжительность: 01: 31: 21
    Качество видео: HDRip
    Перевод: Многоголосый закадровый (студия Артхаус)
    Субтитры: Русские (Артхаус), Русские (Cinema Prestige), Английские
    Видео: AVC/H.264, 738x452, ~2084 Kbps
    Аудио: AC3, 2 ch, 192 Kbps

    General
    Unique ID : 231208820672751899575355867335997009012 (0xADF132F922C60B65BFC445B7F9C02C74)
    Complete name : /media/win/TORRENT/UPLOAD TORRENTS/Lift.na.eshafot.1958.HDRip-AVC.MVO.1.45Gb.mkv
    Format : Matroska
    Format version : Version 4/Version 2
    File size : 1.45 GiB
    Duration : 1 h 31 min
    Overall bit rate : 2 278 kb/s
    Movie name : Elevator to the Gallows, 1958 (New-Team) (Rip by Stalker oK)
    Encoded date : UTC 2015-05-12 21: 11: 01
    Writing application : mkvmerge v7.9.0 (\'Birds\') 64bit
    Writing library : libebml v1.3.1 + libmatroska v1.4.2
    Video
    ID : 1
    Format : AVC
    Format/Info : Advanced Video Codec
    Format profile : High@L4.1
    Format settings, CABAC : Yes
    Format settings, RefFrames : 11 frames
    Codec ID : V_MPEG4/ISO/AVC
    Duration : 1 h 31 min
    Bit rate : 2 084 kb/s
    Width : 738 pixels
    Height : 452 pixels
    Display aspect ratio : 16: 10
    Frame rate mode : Constant
    Frame rate : 23.976 (24000/1001) FPS
    Color space : YUV
    Chroma subsampling : 4: 2: 0
    Bit depth : 8 bits
    Scan type : Progressive
    Bits/(Pixel*Frame) : 0.261
    Stream size : 1.33 GiB (92%)
    Writing library : x264 core 146 r2538 121396c
    Encoding settings : cabac=1/ref=11/deblock=1: -3: -3/analyse=0x3: 0x133/me=umh/subme=11/psy=1/psy_rd=1.03: 0.00/mixed_ref=1/me_range=32/chroma_me=1/trellis=2/8x8dct=1/cqm=0/deadzone=21, 11/fast_pskip=0/chroma_qp_offset=-2/threads=12/lookahead_threads=3/sliced_threads=0/nr=0/decimate=0/interlaced=0/bluray_compat=0/constrained_intra=0/bframes=12/b_pyramid=2/b_adapt=2/b_bias=0/direct=3/weightb=1/open_gop=0/weightp=2/keyint=240/keyint_min=23/scenecut=40/intra_refresh=0/rc_lookahead=40/rc=2pass/mbtree=0/bitrate=2084/ratetol=1.0/qcomp=0.65/qpmin=0/qpmax=69/qpstep=4/cplxblur=20.0/qblur=0.5/vbv_maxrate=50000/vbv_bufsize=62500/nal_hrd=none/filler=0/ip_ratio=1.20/pb_ratio=1.10/aq=3: 1.00
    Default : Yes
    Forced : No
    Audio
    ID : 2
    Format : AC-3
    Format/Info : Audio Coding 3
    Format settings, Endianness : Big
    Codec ID : A_AC3
    Duration : 1 h 31 min
    Bit rate mode : Constant
    Bit rate : 192 kb/s
    Channel(s) : 2 channels
    Channel positions : Front: L R
    Sampling rate : 48.0 kHz
    Frame rate : 31.250 FPS (1536 SPF)
    Bit depth : 16 bits
    Compression mode : Lossy
    Stream size : 125 MiB (8%)
    Title : MVO-Артхаус @ AC3 2ch. 192 kbps
    Language : Russian
    Service kind : Complete Main
    Default : Yes
    Forced : No
    Text #1
    ID : 3
    Format : UTF-8
    Codec ID : S_TEXT/UTF8
    Codec ID/Info : UTF-8 Plain Text
    Duration : 1 h 31 min
    Bit rate : 60 b/s
    Count of elements : 751
    Stream size : 40.1 KiB (0%)
    Title : aptxayc * ( UTF-8)
    Language : Russian
    Default : No
    Forced : No
    Text #2
    ID : 4
    Format : UTF-8
    Codec ID : S_TEXT/UTF8
    Codec ID/Info : UTF-8 Plain Text
    Duration : 1 h 30 min
    Bit rate : 65 b/s
    Count of elements : 671
    Stream size : 43.6 KiB (0%)
    Title : cinema * ( UTF-8)
    Language : Russian
    Default : No
    Forced : No
    Text #3
    ID : 5
    Format : UTF-8
    Codec ID : S_TEXT/UTF8
    Codec ID/Info : UTF-8 Plain Text
    Duration : 1 h 30 min
    Bit rate : 33 b/s
    Count of elements : 739
    Stream size : 22.0 KiB (0%)
    Title : * ( UTF-8)
    Language : English
    Default : No
    Forced : No
    Menu
    00: 00: 00.000 : en: 00: 00: 00.000
    00: 03: 10.106 : en: 00: 03: 10.106
    00: 13: 32.269 : en: 00: 13: 32.269
    00: 19: 30.002 : en: 00: 19: 30.002
    00: 24: 48.528 : en: 00: 24: 48.528
    00: 28: 30.583 : en: 00: 28: 30.583
    00: 33: 59.120 : en: 00: 33: 59.120
    00: 39: 16.562 : en: 00: 39: 16.562
    00: 45: 35.858 : en: 00: 45: 35.858
    00: 48: 36.330 : en: 00: 48: 36.330
    00: 56: 55.120 : en: 00: 56: 55.120
    01: 03: 10.620 : en: 01: 03: 10.620
    01: 07: 12.027 : en: 01: 07: 12.027
    01: 14: 10.320 : en: 01: 14: 10.320
    01: 19: 19.463 : en: 01: 19: 19.463
    01: 25: 58.695 : en: 01: 25: 58.695
    01: 31: 19.098 : en: 01: 31: 19.098

    Скриншоты для ознакомления



    Все одноименные релизы в Клубе
    Время раздачи: с 09: 00 до 23: 00 до пяти скачавших (до появления первых 3-5 скачавших)

    Лифт на эшафот/Ascenseur pour lechafaud (1958) HDRip [H.264]
    загрузка...
    Рейтинг →
     (голосов: 1, оценка 5/5, голосовать можно 1 раз )

    Другие торренты по теме:

  • Лифт: Три минуты могут изменить вашу жизнь / The Elevator: Three Minutes Can Change Your Life (2013) BDRip [720p] [EN]
  • Лифт: Три минуты могут изменить вашу жизнь / The Elevator: Three Minutes Can Change Your Life (2013) BDRip [1080p] [EN]
  • Лифт: Остаться в живых / The Elevator: Three Minutes Can Change Your Life (2013) HDRip скачать через торрент бесплатно
  • Стив Павлина | Лифт саморазвития. Как не застрять между этажами (2014) [EPUB, PDF] скачать через торрент бесплатно
  • Лифт (2013) WEBRip [H.264 / 1080p-LQ] [PR]


    • Комментарии (0):

      Информация

      Информация

        Посетители, находящиеся в группе Гости, не могут оставлять комментарии в данной новости.

        ↓ Меню




        ↓ Опрос

        Вы добавили сайт в закладки?
        Да
        Нет


        Top 10 за месяц (Фильмы)