.
Авторизация | Регистрация
Хочешь лучшие торренты? Добавь свой email!
Добавить

Торрент скачать бесплатно

» » Однажды в апреле / Sometimes in April (2005) HDTVRip торрент скачать бесплатно




    Однажды в апреле / Sometimes in April (2005) HDTVRip торрент скачать бесплатно

    Опубликовал: Админ | Дата: 10-09-2017, 11:46 | Просмотров: 0

    Производство: Франция, США, Руанда/CINEFACTO, HBO Films, ThinkFilm Inc.
    Жанр: Драма, Военный
    Режиссер: Рауль Пек

    Актеры
    Идрис Эльба, Кароль Каремера, Памела Номвете, Фрайзер Джеймс, Эбби Микииби Нкаага, Ноа Эммерик, Дебра Уингер, Дэн Барлоу

    Описание

    Руанда известна в мире как страна самого страшного геноцида ХХ века, страна, в которой за сто дней погибли немногим меньше миллиона человек. История этой маленькой центрально-африканской страны — это история ненависти и кровавой вражды двух этнических групп, хуту и тутси.

    Релиз от: teko
    Продолжительность: 02: 14: 44
    Качество видео: HDTVRip
    Перевод: Двуголосый закадровый (НТВ+)
    Субтитры: отсутствуют
    Видео: Xvid, 688x384, ~1353 Kbps
    Аудио: AC3, 2 ch, 192 Kbps

    General
    Complete name : /media/win/TORRENT/UPLOAD TORRENTS/Sometimes.in.April.2005.hdtvrip.avi
    Format : AVI
    Format/Info : Audio Video Interleave
    File size : 1.44 GiB
    Duration : 2 h 14 min
    Overall bit rate : 1 530 kb/s
    Writing application : VirtualDubMod 1.5.10.3 |www.virtualdub-fr.org|| (build 2550/release)
    Writing library : VirtualDubMod build 2550/release
    Video
    ID : 0
    Format : MPEG-4 Visual
    Format profile : Advanced Simple@L5
    Format settings, BVOP : 2
    Format settings, QPel : No
    Format settings, GMC : No warppoints
    Format settings, Matrix : Custom
    Codec ID : XVID
    Codec ID/Hint : XviD
    Duration : 2 h 14 min
    Bit rate : 1 328 kb/s
    Width : 688 pixels
    Height : 384 pixels
    Display aspect ratio : 16: 9
    Frame rate : 25.000 FPS
    Color space : YUV
    Chroma subsampling : 4: 2: 0
    Bit depth : 8 bits
    Scan type : Progressive
    Compression mode : Lossy
    Bits/(Pixel*Frame) : 0.201
    Stream size : 1.25 GiB (87%)
    Writing library : XviD 73
    Audio
    ID : 1
    Format : AC-3
    Format/Info : Audio Coding 3
    Format settings, Endianness : Big
    Codec ID : 2000
    Duration : 2 h 14 min
    Bit rate mode : Constant
    Bit rate : 192 kb/s
    Channel(s) : 2 channels
    Channel positions : Front: L R
    Sampling rate : 48.0 kHz
    Frame rate : 31.250 FPS (1536 SPF)
    Bit depth : 16 bits
    Compression mode : Lossy
    Stream size : 185 MiB (13%)
    Alignment : Split accross interleaves
    Interleave, duration : 40 ms (1.00 video frame)
    Interleave, preload duration : 500 ms
    Service kind : Complete Main


    Однажды в апреле/Sometimes in April (2005) HDTVRip
    загрузка...
    Рейтинг →
     (голосов: 1, оценка 3/5, голосовать можно 1 раз )

    Другие торренты по теме:

  • Однажды в апреле / Sometimes in April (2005) HDTV [H.264 / 1080i-LQ]


    • Комментарии (0):

      Информация

      Информация

        Посетители, находящиеся в группе Гости, не могут оставлять комментарии в данной новости.

        ↓ Меню




        ↓ Опрос

        Вы добавили сайт в закладки?
        Да
        Нет


        Top 10 за месяц (Фильмы)