.
Авторизация | Регистрация
Хочешь лучшие торренты? Добавь свой email!
Добавить

Торрент скачать бесплатно

» » Женщина / Femina (1991) TVRip [VO] торрент скачать бесплатно




    Женщина / Femina (1991) TVRip [VO] торрент скачать бесплатно

    Опубликовал: Админ | Дата: 10-09-2017, 11:46 | Просмотров: 1

    Производство: Польша
    Жанр: Драма
    Режиссер: Петр Шулькин

    Актеры
    Ханна Дуновска, Алина Яновска, Ханна Скаржанка, Ewa Frackiewicz, Эва Салацка, Катажина Уолтер, Мария Захватович, Мария Чюнелис, Малгожата Хаевская, Марцин Тронский.

    Описание

    Богна — замужняя женщина, за спиной у которой — тяжёлое детство, полное тирании матери — религиозной фанатички, а впереди — безысходность несложившейся семейной жизни. Её муж с головой погружён в научную работу и совсем не заботится о её чувствах или воспитании сына. После отъезда мужа по делам, Богна узнаёт о смерти матери и отправляется на её похороны. Ей предстоит столкнуться со своим прошлым — и встретиться с теми, кого она когда-то любила и пыталась забыть. Ведомая страстью и жаждой того, чего она оказалась лишена, Женщина предпринимает смелые шаги на пути к осознанию главной ценности собственной жизни.

    Возраст: 18+ (зрителям, достигшим 18 лет. запрещено для детей)
    Релиз от: tornado
    Продолжительность: 01: 24: 00
    Качество видео: TVRip
    Перевод: Одноголосый закадровый, любительский (tornado)
    Субтитры: Отсутствуют
    Видео: Xvid, 720х448, ~1999 Kbps
    Аудио: MP3, 2 ch, 128 Kbps

    Формат : AVI
    Формат/Информация : Audio Video Interleave
    Профиль формата : OpenDML
    Размер файла : 1, 29 Гбайт
    Продолжительность : 1 ч. 24 м.
    Общий поток : 2195 Кбит/сек
    TCOD : 0
    TCDO : 50415600000
    Видео
    Идентификатор : 0
    Формат : MPEG-4 Visual
    Профиль формата : Advanced Simple@L5
    Параметр BVOP формата : 1
    Параметр QPel формата : Нет
    Параметр GMC формата : Без точки перехода
    Параметр матрицы формата : Default (MPEG)
    Идентификатор кодека : XVID
    Идентификатор кодека/Подсказка : XviD
    Продолжительность : 1 ч. 24 м.
    Битрейт : 1999 Кбит/сек
    Ширина : 720 пикселей
    Высота : 448 пикселей
    Соотношение сторон : 16: 10
    Частота кадров : 25, 000 кадров/сек
    Цветовое пространство : YUV
    Субдискретизация насыщенности : 4: 2: 0
    Битовая глубина : 8 бит
    Тип развёртки : Прогрессивная
    Метод сжатия : С потерями
    Бит/(Пиксели*Кадры) : 0.248
    Размер потока : 1, 17 Гбайт (91%)
    Библиотека кодирования : XviD 64
    Аудио
    Идентификатор : 1
    Формат : MPEG Audio
    Версия формата : Version 1
    Профиль формата : Layer 3
    Режим : Joint stereo
    Расширение режима : MS Stereo
    Идентификатор кодека : 55
    Идентификатор кодека/Подсказка : MP3
    Продолжительность : 1 ч. О таком странном сюжете не догадывалась даже Ангела Меркель. 24 м.
    Вид битрейта : Постоянный
    Битрейт : 128 Кбит/сек
    Каналы : 2 канала
    Частота : 48, 0 КГц
    Метод сжатия : С потерями
    Размер потока : 76, 9 Мбайт (6%)
    Выравнивание : Соединение по промежуткам
    Продолжительность промежутка : 250 мс. (6, 25 видеокадров)
    Время предзагрузки промежутка : 192 мс.


    Женщина/Femina (1991) TVRip [VO]
    загрузка...
    Рейтинг →
     (голосов: 1, оценка 3/5, голосовать можно 1 раз )

    Другие торренты по теме:

  • Женщина есть женщина / Une femme est une femme (1961) BDRip [H.264]
  • Воскресная женщина (Женщина на воскресенье) / La donna della domenica (1975) DVDRip [H.264]
  • Город грехов 2: Женщина, ради которой стоит убивать / Sin City: A Dame to Kill For (2014) HDRip
  • Город грехов 2: Женщина, ради которой стоит убивать / Sin City: A Dame to Kill For (2014) BDRip [H264]
  • Город грехов 2: Женщина, ради которой стоит убивать / Sin City: A Dame to Kill For (2014) HDRip
  • Женщина во дворе / Dans la cour (2014) HDRip [FR / RU Sub]
  • Город грехов 2: Женщина, ради которой стоит убивать / Sin City: A Dame to Kill For (2014) BDRip [720p]
  • Город грехов 2: Женщина, ради которой стоит убивать / Sin City: A Dame to Kill For (2014) Blu-ray [1080p]


    • Комментарии (0):

      Информация

      Информация

        Посетители, находящиеся в группе Гости, не могут оставлять комментарии в данной новости.

        ↓ Меню




        ↓ Опрос

        Вы добавили сайт в закладки?
        Да
        Нет


        Top 10 за месяц (Фильмы)