.
Авторизация | Регистрация
Хочешь лучшие торренты? Добавь свой email!
Добавить

Торрент скачать бесплатно

» » Сигнал / The Signal (2014) WEB-DLRip [H.264] торрент скачать бесплатно




    Сигнал / The Signal (2014) WEB-DLRip [H.264] торрент скачать бесплатно

    Опубликовал: Админ | Дата: 10-09-2017, 11:46 | Просмотров: 1

    Производство: США | Automatik Entertainment, Low Spark Films
    Жанр: Фантастика, триллер
    Режиссер: Уильям Юбэнк
    Продюсер: Тайлер Дэвидсон, Брайан Кэвэна-Джонс, Лия Буман

    Актеры
    Брентон Туэйтс, Лоренс Фишборн, Оливия Кук, Бо Напп, Лин Шэй, Роберт Лонгстрит, Патрик Дэвидсон, Джеффри Гроувер, Рой Кенни, Тимоти Холмс

    Описание

    Трое студентов-хакеров неожиданно начинают получать таинственные сообщения от незнакомца под ником NOMAD (Кочевник). Но они даже не подозревают, с чем имеют дело. После серии необъяснимых происшествий друзья бегут из опасной ловушки, но тут же становятся объектами охоты людей в чёрном, которые считают, что после контакта хакеры могут представлять угрозу для всего человечества.

    Возраст: 12+ (зрителям, достигшим 12 лет)
    Рейтинг MPAA: PG-13 (детям до 13 лет просмотр нежелателен)
    Дата мировой премьеры: 20 января 2014
    Дата Российской премьеры: 4 сентября 2014, Централ Партнершип, All Media
    Продолжительность: 01: 37: 20
    Качество видео: WEB-DLRip
    Перевод: Многоголосый закадровый; авторский
    Субтитры: Английские
    Реклама: Отсутствует
    Видео: AVC/H.264, 1024x576 (16: 9) ~2 593 kbps, 23.976 FPS
    Аудио 1: AC3, 2 ch, 256 kbps - (Рен-ТВ)
    Аудио 2: AC3, 6 ch, 448 kbps - (Немахов)
    Аудио 3: AC3, 6 ch, 448 kbps - (Оригинал)

    General
    Unique ID : 235437278180213203489274998049785062116 (0xB11F9206354E55A0AA1B3B04CB4122E4)
    Complete name : D: 1_ENGLISHФИЛЬМЫSignalSignal_2014_WEB-DLRip_AVC.mkv
    Format : Matroska
    Format version : Version 2
    File size : 2.54 GiB
    Duration : 1 h 37 min
    Overall bit rate : 3 742 kb/s
    Movie name : The.Signal.2014 #TorpedoUK#
    Encoded date : UTC 2017-09-07 17: 51: 27
    Writing application : mkvmerge v7.8.0 (\'River Man\') 32bit built on Apr 3 2015 12: 11: 22
    Writing library : libebml v1.3.1 + libmatroska v1.4.2
    Video
    ID : 1
    Format : AVC
    Format/Info : Advanced Video Codec
    Format profile : High@L4.1
    Format settings, CABAC : Yes
    Format settings, ReFrames : 10 frames
    Codec ID : V_MPEG4/ISO/AVC
    Duration : 1 h 37 min
    Bit rate : 2 593 kb/s
    Width : 1 024 pixels
    Height : 576 pixels
    Display aspect ratio : 16: 9
    Frame rate mode : Constant
    Frame rate : 23.976 (24000/1001) FPS
    Color space : YUV
    Chroma subsampling : 4: 2: 0
    Bit depth : 8 bits
    Scan type : Progressive
    Bits/(Pixel*Frame) : 0.183
    Stream size : 1.71 GiB (67%)
    Writing library : x264 core 146 r2538 121396c
    Encoding settings : cabac=1/ref=10/deblock=1: -3: -3/analyse=0x3: 0x133/me=umh/subme=10/psy=1/psy_rd=1.00: 0.07/mixed_ref=1/me_range=48/chroma_me=1/trellis=2/8x8dct=1/cqm=0/deadzone=21, 11/fast_pskip=0/chroma_qp_offset=-3/threads=6/lookahead_threads=1/sliced_threads=0/nr=0/decimate=0/interlaced=0/bluray_compat=0/constrained_intra=0/bframes=10/b_pyramid=2/b_adapt=2/b_bias=0/direct=3/weightb=1/open_gop=0/weightp=2/keyint=240/keyint_min=23/scenecut=40/intra_refresh=0/rc_lookahead=40/rc=2pass/mbtree=0/bitrate=2593/ratetol=1.0/qcomp=0.60/qpmin=0/qpmax=69/qpstep=4/cplxblur=20.0/qblur=0.5/vbv_maxrate=50000/vbv_bufsize=62500/nal_hrd=none/filler=0/ip_ratio=1.40/pb_ratio=1.30/aq=1: 1.00
    Language : English
    Default : Yes
    Forced : No
    Audio #1
    ID : 2
    Format : AC-3
    Format/Info : Audio Coding 3
    Format settings, Endianness : Big
    Codec ID : A_AC3
    Duration : 1 h 37 min
    Bit rate mode : Constant
    Bit rate : 256 kb/s
    Channel(s) : 2 channels
    Channel positions : Front: L R
    Sampling rate : 48.0 kHz
    Frame rate : 31.250 FPS (1536 spf)
    Bit depth : 16 bits
    Compression mode : Lossy
    Stream size : 178 MiB (7%)
    Title : Рен-ТВ
    Language : Russian
    Service kind : Complete Main
    Default : Yes
    Forced : No
    Audio #2
    ID : 3
    Format : AC-3
    Format/Info : Audio Coding 3
    Format settings, Endianness : Big
    Codec ID : A_AC3
    Duration : 1 h 37 min
    Bit rate mode : Constant
    Bit rate : 448 kb/s
    Channel(s) : 6 channels
    Channel positions : Front: L C R, Side: L R, LFE
    Sampling rate : 48.0 kHz
    Frame rate : 31.250 FPS (1536 spf)
    Bit depth : 16 bits
    Compression mode : Lossy
    Stream size : 312 MiB (12%)
    Title : Немахов
    Language : Russian
    Service kind : Complete Main
    Default : No
    Forced : No
    Audio #3
    ID : 4
    Format : AC-3
    Format/Info : Audio Coding 3
    Format settings, Endianness : Big
    Codec ID : A_AC3
    Duration : 1 h 37 min
    Bit rate mode : Constant
    Bit rate : 448 kb/s
    Channel(s) : 6 channels
    Channel positions : Front: L C R, Side: L R, LFE
    Sampling rate : 48.0 kHz
    Frame rate : 31.250 FPS (1536 spf)
    Bit depth : 16 bits
    Compression mode : Lossy
    Stream size : 312 MiB (12%)
    Title : Original
    Language : English
    Service kind : Complete Main
    Default : No
    Forced : No
    Text
    ID : 5
    Format : UTF-8
    Codec ID : S_TEXT/UTF8
    Codec ID/Info : UTF-8 Plain Text
    Language : English
    Default : No
    Forced : No
    Menu
    00: 00: 00.000 : en: Chapter 01
    00: 04: 26.099 : en: Chapter 02
    00: 08: 29.592 : en: Chapter 03
    00: 12: 52.605 : en: Chapter 04
    00: 17: 20.956 : en: Chapter 05
    00: 23: 18.355 : en: Chapter 06
    00: 27: 36.529 : en: Chapter 07
    00: 33: 47.775 : en: Chapter 08
    00: 38: 41.819 : en: Chapter 09
    00: 42: 48.816 : en: Chapter 10
    00: 46: 52.851 : en: Chapter 11
    00: 51: 03.477 : en: Chapter 12
    00: 56: 00.899 : en: Chapter 13
    01: 01: 50.206 : en: Chapter 14
    01: 05: 25.379 : en: Chapter 15
    01: 12: 40.230 : en: Chapter 16
    01: 16: 38.343 : en: Chapter 17
    01: 23: 49.190 : en: Chapter 18
    01: 30: 09.904 : en: Chapter 19
    01: 33: 01.158 : en: Chapter 20

    Скриншоты для ознакомления




    Все одноименные релизы в Клубе
    Время раздачи: 24/7 (до появления первых 3-5 скачавших)

    Сигнал/The Signal (2014) WEB-DLRip [H.264]
    загрузка...
    Рейтинг →
     (голосов: 1, оценка 5/5, голосовать можно 1 раз )

    Другие торренты по теме:

  • Сигнал / The Signal (2014) WEBRip [Звук с TS]
  • Сигнал / The Signal (2014) BDRemux [1080p] [AVO] скачать через торрент бесплатно
  • Сигнал / The Signal (2014) BDRip [1080p] [AVO] скачать через торрент бесплатно
  • Сигнал / The Signal (2014) BDRip [576p] iPad скачать через торрент бесплатно
  • Сигнал / The Signal (2014) BDRip [H.264] [AVO]
  • Сигнал / The Signal (2014) BDRip [H.264] [AVO]
  • Сигнал / The Signal (2014) BDRip [720p] [AVO]
  • Сигнал / The Signal (2014) BDRip [1080p] ATV скачать через торрент бесплатно


    • Комментарии (0):

      Информация

      Информация

        Посетители, находящиеся в группе Гости, не могут оставлять комментарии в данной новости.

        ↓ Меню




        ↓ Опрос

        Вы добавили сайт в закладки?
        Да
        Нет


        Top 10 за месяц (Фильмы)