.
Авторизация | Регистрация
Хочешь лучшие торренты? Добавь свой email!
Добавить

Торрент скачать бесплатно

» » Голем / The Limehouse Golem (2016) WEB-DL [H.264 / 1080p-LQ] [EN / EN Sub] торрент скачать бесплатно




    Голем / The Limehouse Golem (2016) WEB-DL [H.264 / 1080p-LQ] [EN / EN Sub] торрент скачать бесплатно

    Опубликовал: Админ | Дата: 10-09-2017, 11:46 | Просмотров: 0

    Производство: Великобритания, Number 9 Films
    Жанр: Ужасы, Триллер
    Режиссер: Хуан Карлос Медина
    Продюсер: Элизабет Карлсен, Джоэнна Лори, Стивен Вулли, ...

    Актеры
    Оливия Кук, Билл Найи, Эдди Марсан, Дуглас Бут, Мария Вальверде, Сэм Рид, Дэниэл Мейс, Адам Браун, Генри Гудман, Морган Уоткинс ...

    Описание

    Викторианский Лондон, 1880 год. Опасный район города Лаймхауз потрясает серия жестоких убийств. Напуганные до смерти жители полагают, что в этих чудовищных и безжалостных преступлениях замешан не кто иной, как голем — глиняное существо из мифологии, оживляемое при помощи магии. Панический страх растет, убийства продолжаются. Полиция не знает, что делать, и в качестве козла отпущения главным в этом деле назначается опытный детектив, инспектор Килдэр.

    Премьера (мир): 10 сентября 2016, ...
    Премьера (РФ): 19 октября 2017, Экспонента

    Продолжительность: 01: 48: 46
    Качество видео: WEB-DL 1080p
    Перевод: Отсутствует
    Язык озвучки: Английский
    Субтитры: Английские
    Видео: AVC, 1912x796 (2.40: 1), 23.976 fps, 4 492 Kbps (0.123 bit/pixel)
    Аудио: AC-3, 48.0 KHz, 6 ch, 384 Kbps, CBR (English)
    General
    Complete name : `The.Limehouse.Golem.2016.1080p.WEB-DL.DD5.1.H264.mkv
    Format : Matroska
    Format version : Version 4/Version 2
    File size : 3.78 GiB
    Duration : 1 h 48 min
    Overall bit rate : 4 975 kb/s
    Encoded date : UTC 2017-09-08 07: 59: 51
    Writing application : mkvmerge v15.0.0 (\'Duel with the Devil\') 64-bit
    Writing library : libebml v1.3.5 + libmatroska v1.4.5
    Video
    ID : 1
    Format : AVC
    Format/Info : Advanced Video Codec
    Format profile : High@L4
    Format settings, CABAC : Yes
    Format settings, RefFrames : 5 frames
    Codec ID : V_MPEG4/ISO/AVC
    Duration : 1 h 48 min
    Bit rate : 4 492 kb/s
    Width : 1 912 pixels
    Height : 796 pixels
    Display aspect ratio : 2.40: 1
    Frame rate mode : Constant
    Frame rate : 23.976 (24000/1001) FPS
    Color space : YUV
    Chroma subsampling : 4: 2: 0
    Bit depth : 8 bits
    Scan type : Progressive
    Bits/(Pixel*Frame) : 0.123
    Stream size : 3.41 GiB (90%)
    Language : English
    Default : Yes
    Forced : No
    Color range : Limited
    Color primaries : BT.709
    Transfer characteristics : BT.709
    Matrix coefficients : BT.709
    Audio
    ID : 2
    Format : AC-3
    Format/Info : Audio Coding 3
    Format settings, Endianness : Big
    Codec ID : A_AC3
    Duration : 1 h 48 min
    Bit rate mode : Constant
    Bit rate : 384 kb/s
    Channel(s) : 6 channels
    Channel positions : Front: L C R, Side: L R, LFE
    Sampling rate : 48.0 kHz
    Frame rate : 31.250 FPS (1536 SPF)
    Bit depth : 16 bits
    Compression mode : Lossy
    Delay relative to video : -42 ms
    Stream size : 299 MiB (8%)
    Language : English
    Service kind : Complete Main
    Default : Yes
    Forced : No
    Text
    ID : 3
    Format : UTF-8
    Codec ID : S_TEXT/UTF8
    Codec ID/Info : UTF-8 Plain Text
    Language : English
    Default : Yes
    Forced : No
    Menu
    00: 00: 00.000 : en: 1
    00: 11: 30.023 : en: 2
    00: 20: 49.999 : en: 3
    00: 32: 21.774 : en: 4
    00: 40: 16.039 : en: 5
    00: 52: 10.628 : en: 6
    01: 10: 57.504 : en: 7
    01: 24: 19.055 : en: 8
    01: 30: 02.022 : en: 9
    01: 43: 27.160 : en: 10

    Скриншоты для ознакомления




    Все одноименные релизы в Клубе
    Время раздачи: 24/7 (круглосуточно) (до появления первых 3-5 скачавших)

    Голем/The Limehouse Golem (2016) WEB-DL [H.264/1080p-LQ] [EN/EN Sub]
    загрузка...
    Рейтинг →
     (голосов: 1, оценка 4/5, голосовать можно 1 раз )

    Другие торренты по теме:

  • Голем / The Limehouse Golem (2016) WEB-DLRip [MVO] [AD]
  • Голем / The Limehouse Golem (2016) WEB-DLRip [H.264 / 1080p-LQ] [MVO] [AD]
  • Голем / The Limehouse Golem (2016) WEB-DLRip
  • Голем / The Limehouse Golem (2016) WEB-DL [H.264 / 1080p-LQ] [MVO]
  • Голем / The Limehouse Golem (2016) BDRip [H.264 / 720p] [MVO]
  • Голем / The Limehouse Golem (2016) BDRemux [H.264 / 1080p] [MVO]
  • Голем / The Limehouse Golem (2016) WEB-DL [H.264 / 720p-LQ] [MVO]


    • Комментарии (0):

      Информация

      Информация

        Посетители, находящиеся в группе Гости, не могут оставлять комментарии в данной новости.

        ↓ Меню




        ↓ Опрос

        Вы добавили сайт в закладки?
        Да
        Нет


        Top 10 за месяц (Фильмы)