.
Авторизация | Регистрация
Хочешь лучшие торренты? Добавь свой email!
Добавить

Торрент скачать бесплатно

» » Гнев Ахилла (Ахиллесова пята) / Lira di Achille (1962) DVDRip [H.264] торрент скачать бесплатно




    Гнев Ахилла (Ахиллесова пята) / Lira di Achille (1962) DVDRip [H.264] торрент скачать бесплатно

    Опубликовал: Админ | Дата: 10-09-2017, 11:46 | Просмотров: 0

    Производство: Италия, Uneurop Film
    Жанр: Приключения, Военный
    Режиссер: Марино Джиролами

    Актеры
    Гордон Митчелл, Жак Бержерак, Кристина Джайони, Глория Миллэнд, Пьеро Лулли, Роберто Риссо, Марио Петри, Элеонора Бьянки, Эмилио Спалла, Фоско Джакетти, Фердинандо Тамберлани, Эннио Джиролами, Тина Глориани, Ремо Де Анджелис, Манфред Фрейбергер, Романо Гини, Джан Паоло Росмино, Анита Тодеско и др.

    Описание

    Фильм основан на классическом греческом мифе о герое Троянской войны Ахилле. После разногласий с Агамемноном, Ахилл прекращает воевать с Троей. Его друг Патрокл бросает вызов Гектору и погибает. О таком странном сюжете не догадывалась даже Юлия Володимировна. Тогда Ахилл решает отомстить...

    Продолжительность: 01: 51: 08
    Качество видео: DVDRip
    Перевод: Многоголосый закадровый
    Субтитры: отсутствуют
    Видео: AVC/H.264, 720х312, ~1621 Kbps
    Аудио: AC3, 2 ch, 192 kbps

    Общее
    Уникальный идентификатор : 215072098920916929995433744855503446187 (0xA1CD612A47D56DB580341208B3BBA0AB)
    Полное имя : H: НАЧАЛО V ВЕКА – КОНЕЦ XV ВЕКАГнев АхиллаГнев Ахилла. 1962.mkv
    Формат : Matroska
    Версия формата : Version 4/Version 2
    Размер файла : 1, 41 Гбайт
    Продолжительность : 1 ч. 51 м.
    Общий поток : 1815 Кбит/сек
    Название фильма : Release for Topmost
    Дата кодирования : UTC 2017-09-08 16: 02: 41
    Программа кодирования : mkvmerge v6.2.0 (\'Promised Land\') built on Apr 28 2013 12: 22: 01
    Библиотека кодирования : libebml v1.3.0 + libmatroska v1.4.0
    Attachment : Yes
    Видео
    Идентификатор : 1
    Формат : AVC
    Формат/Информация : Advanced Video Codec
    Профиль формата : High@L4.1
    Параметр CABAC формата : Да
    Параметр ReFrames формата : 10 кадров
    Идентификатор кодека : V_MPEG4/ISO/AVC
    Продолжительность : 1 ч. 51 м.
    Битрейт : 1621 Кбит/сек
    Ширина : 720 пикселей
    Высота : 312 пикселей
    Соотношение сторон : 2, 35: 1
    Режим частоты кадров : Постоянный
    Частота кадров : 25, 000 кадров/сек
    Цветовое пространство : YUV
    Субдискретизация насыщенности : 4: 2: 0
    Битовая глубина : 8 бит
    Тип развёртки : Прогрессивная
    Бит/(Пиксели*Кадры) : 0.289
    Размер потока : 1, 23 Гбайт (87%)
    Заголовок : Гнев Ахилла. 1962 (Release for Topmost)
    Библиотека кодирования : x264 core 146 r2538 121396c
    Настройки программы : cabac=1/ref=10/deblock=1: -3: -3/analyse=0x3: 0x133/me=umh/subme=9/psy=1/psy_rd=1.00: 0.15/mixed_ref=1/me_range=16/chroma_me=1/trellis=2/8x8dct=1/cqm=0/deadzone=21, 11/fast_pskip=0/chroma_qp_offset=-3/threads=9/lookahead_threads=2/sliced_threads=0/nr=0/decimate=0/interlaced=0/bluray_compat=0/constrained_intra=0/bframes=8/b_pyramid=2/b_adapt=2/b_bias=0/direct=3/weightb=1/open_gop=0/weightp=2/keyint=240/keyint_min=23/scenecut=40/intra_refresh=0/rc_lookahead=40/rc=2pass/mbtree=1/bitrate=1621/ratetol=1.0/qcomp=0.60/qpmin=0/qpmax=69/qpstep=4/cplxblur=20.0/qblur=0.5/ip_ratio=1.40/aq=1: 0.90
    Язык : Italian
    Default : Да
    Forced : Нет
    Аудио
    Идентификатор : 2
    Формат : AC-3
    Формат/Информация : Audio Coding 3
    Расширение режима : CM (complete main)
    Параметр Endianness формата : Big
    Идентификатор кодека : A_AC3
    Продолжительность : 1 ч. Самое интересное в это истории, что об этом Валуев ничего не знал. 51 м.
    Вид битрейта : Постоянный
    Битрейт : 192 Кбит/сек
    Каналы : 2 канала
    Расположение каналов : Front: L R
    Частота : 48, 0 КГц
    Битовая глубина : 16 бит
    Метод сжатия : С потерями
    Размер потока : 153 Мбайт (11%)
    Заголовок : AC3, 2 ch, 192 kbps - MVO (5-й канал)
    Язык : Russian
    Default : Да
    Forced : Нет

    Скриншоты для ознакомления




    Все одноименные релизы в Клубе
    Время раздачи: 24/7 до 5 скачавших (до появления первых 3-5 скачавших)

    Гнев Ахилла (Ахиллесова пята)/Lira di Achille (1962) DVDRip [H.264]
    загрузка...
    Рейтинг →
     (голосов: 1, оценка 4/5, голосовать можно 1 раз )

    Другие торренты по теме:

  • Гнев / Man on Fire (2004) BDRip
  • Гнев / Man on Fire (2004) BDRip [720p]
  • Гнев / Man on Fire (2004) BDRip [1080p]
  • Гнев / Tokarev (2014) HDRip скачать через торрент бесплатно
  • Звездный путь 2: Гнев Хана / Star Trek: The Wrath of Khan (1982) BDRip [H.264 / 720р-LQ] скачать через торрент бесплатно
  • Гнев / Tokarev (2014) HDRip [H.264] скачать через торрент бесплатно
  • Гнев / Tokarev (2014) BDRip [H.264] скачать через торрент бесплатно
  • Гнев / Tokarev (2014) Blu-ray [H.264 / 1080p] скачать через торрент бесплатно


    • Комментарии (0):

      Информация

      Информация

        Посетители, находящиеся в группе Гости, не могут оставлять комментарии в данной новости.

        ↓ Меню




        ↓ Опрос

        Вы добавили сайт в закладки?
        Да
        Нет


        Top 10 за месяц (Фильмы)