.
Авторизация | Регистрация
Хочешь лучшие торренты? Добавь свой email!
Добавить

Торрент скачать бесплатно

» » Дюнкерк / Dunkirk (1958) WEB-DLRip [H.264 / 720p-LQ] торрент скачать бесплатно




    Дюнкерк / Dunkirk (1958) WEB-DLRip [H.264 / 720p-LQ] торрент скачать бесплатно

    Опубликовал: Админ | Дата: 10-09-2017, 11:46 | Просмотров: 0

    Производство: Великобритания
    Жанр: Драма, Военный
    Режиссер: Лесли Норман

    Актеры
    Джон Миллз, Роберт Эркарт, Рэй Джексон, Мередит Эдвардс, Энтони Николлс, Бернард Ли, Майкл Шилло, Ричард Аттенборо, Шон Баррет, Виктор Маддерн.

    Описание

    Две истории в одной: беззаботный британский капрал, находящийся во Франции, узнаёт, что он оказался ответственным за жизни своих людей после гибели их офицера. И он должен найти способ вернуть их в Англию. Тем временем британские гражданские лица оказываются втянутыми в войну при помощи операции Динамо, целью которой было вернуть французские и британские войска на побережье Дюнкерка. Есть и те, кто готов прийти на помощь, и те, кто действует не столь охотно.

    Продолжительность: 02: 09: 45
    Качество видео: WEB-DLRip
    Перевод: Одноголосый закадровый
    Субтитры: Английские
    Видео: AVC/H.264, 1280x720, ~4 000 Kbps
    Аудио#1: AC3, 2 ch, 192 Kbps | Русский – АVO (А. Багичев)
    Аудио#2: AC3, 2 ch, 192 Kbps | Английский – оригинал

    Общее
    Уникальный идентификатор : 180797530018858237418141320932879398662 (0x88045673141190E68792F13A99027706)
    Полное имя : H: НАЧАЛО XVI ВЕКА – ХХI ВЕКДюнкеркДюнкерк. 1958.mkv
    Формат : Matroska
    Версия формата : Version 4/Version 2
    Размер файла : 4, 15 Гбайт
    Продолжительность : 2 ч. 15 м.
    Общий поток : 4386 Кбит/сек
    Название фильма : Release for Topmost
    Дата кодирования : UTC 2017-09-08 18: 40: 27
    Программа кодирования : mkvmerge v6.2.0 (\'Promised Land\') built on Apr 28 2013 12: 22: 01
    Библиотека кодирования : libebml v1.3.0 + libmatroska v1.4.0
    Attachment : Yes
    Видео
    Идентификатор : 1
    Формат : AVC
    Формат/Информация : Advanced Video Codec
    Профиль формата : High@L4.1
    Параметр CABAC формата : Да
    Параметр ReFrames формата : 10 кадров
    Идентификатор кодека : V_MPEG4/ISO/AVC
    Продолжительность : 2 ч. 15 м.
    Битрейт : 4000 Кбит/сек
    Ширина : 1280 пикселей
    Высота : 720 пикселей
    Соотношение сторон : 16: 9
    Режим частоты кадров : Постоянный
    Частота кадров : 23, 976 кадра/сек
    Цветовое пространство : YUV
    Субдискретизация насыщенности : 4: 2: 0
    Битовая глубина : 8 бит
    Тип развёртки : Прогрессивная
    Бит/(Пиксели*Кадры) : 0.181
    Размер потока : 3, 70 Гбайт (89%)
    Заголовок : Дюнкерк. 1958 (Release for Topmost)
    Библиотека кодирования : x264 core 146 r2538 121396c
    Настройки программы : cabac=1/ref=10/deblock=1: -3: -3/analyse=0x3: 0x133/me=umh/subme=9/psy=1/psy_rd=1.00: 0.15/mixed_ref=1/me_range=16/chroma_me=1/trellis=2/8x8dct=1/cqm=0/deadzone=21, 11/fast_pskip=0/chroma_qp_offset=-3/threads=9/lookahead_threads=2/sliced_threads=0/nr=0/decimate=0/interlaced=0/bluray_compat=0/constrained_intra=0/bframes=8/b_pyramid=2/b_adapt=2/b_bias=0/direct=3/weightb=1/open_gop=0/weightp=2/keyint=240/keyint_min=23/scenecut=40/intra_refresh=0/rc_lookahead=40/rc=2pass/mbtree=1/bitrate=4000/ratetol=1.0/qcomp=0.60/qpmin=0/qpmax=69/qpstep=4/cplxblur=20.0/qblur=0.5/ip_ratio=1.40/aq=1: 0.90
    Язык : English
    Default : Да
    Forced : Нет
    Аудио #1
    Идентификатор : 2
    Формат : AC-3
    Формат/Информация : Audio Coding 3
    Расширение режима : CM (complete main)
    Параметр Endianness формата : Big
    Идентификатор кодека : A_AC3
    Продолжительность : 2 ч. 15 м.
    Вид битрейта : Постоянный
    Битрейт : 192 Кбит/сек
    Каналы : 2 канала
    Расположение каналов : Front: L R
    Частота : 48, 0 КГц
    Битовая глубина : 16 бит
    Метод сжатия : С потерями
    Размер потока : 186 Мбайт (4%)
    Заголовок : AC3, 2 ch, 192 kbps - AVO (А. Багичев)
    Язык : Russian
    Default : Да
    Forced : Нет
    Аудио #2
    Идентификатор : 3
    Формат : AC-3
    Формат/Информация : Audio Coding 3
    Расширение режима : CM (complete main)
    Параметр Endianness формата : Big
    Идентификатор кодека : A_AC3
    Продолжительность : 2 ч. 15 м.
    Вид битрейта : Постоянный
    Битрейт : 192 Кбит/сек
    Каналы : 2 канала
    Расположение каналов : Front: L R
    Частота : 48, 0 КГц
    Битовая глубина : 16 бит
    Метод сжатия : С потерями
    Размер потока : 186 Мбайт (4%)
    Заголовок : AC3, 2 ch, 192 kbps - оригинал
    Язык : English
    Default : Нет
    Forced : Нет
    Текст
    Идентификатор : 4
    Формат : UTF-8
    Идентификатор кодека : S_TEXT/UTF8
    Идентификатор кодека/Информация : UTF-8 Plain Text
    Язык : English
    Default : Нет
    Forced : Нет

    Скриншоты для ознакомления




    Все одноименные релизы в Клубе
    Время раздачи: 24/7 до 5 скачавших (до появления первых 3-5 скачавших)

    Дюнкерк/Dunkirk (1958) WEB-DLRip [H.264/720p-LQ]
    загрузка...
    Рейтинг →
     (голосов: 1, оценка 3/5, голосовать можно 1 раз )

    Другие торренты по теме:

  • Дюнкерк / Dunkirk (2017) TS [H.264 / 720p-LQ] [AD]
  • Дюнкерк / Dunkirk (2017) HDTV [H.264 / 1080p-LQ] [Трейлер]
  • Дюнкерк / Dunkirk (2017) TS [AD]
  • Дюнкерк / Dunkirk (2004) DVDRip (3 серии из 3)
  • Hans Zimmer - Dunkirk / Дюнкерк (Original Motion Picture Soundtrack) (2017) [MP3|320 кб / с]<Soundtrack>
  • Hans Zimmer - Dunkirk / Дюнкерк (Original Motion Picture Soundtrack) (2017) [FLAC|Lossless|WEB-DL|tracks]<Soundtrack>


    • Комментарии (0):

      Информация

      Информация

        Посетители, находящиеся в группе Гости, не могут оставлять комментарии в данной новости.

        ↓ Меню




        ↓ Опрос

        Вы добавили сайт в закладки?
        Да
        Нет


        Top 10 за месяц (Фильмы)