.
Авторизация | Регистрация
Хочешь лучшие торренты? Добавь свой email!
Добавить

Торрент скачать бесплатно

» » С первого взгляда / At First Sight (1999) BDRip [H.264 / 1080p-LQ] торрент скачать бесплатно




    С первого взгляда / At First Sight (1999) BDRip [H.264 / 1080p-LQ] торрент скачать бесплатно

    Опубликовал: Админ | Дата: 10-09-2017, 11:46 | Просмотров: 0

    Производство: США/Metro-Goldwyn-Mayer
    Жанр: Драма, Мелодрама
    Режиссер: Ирвин Уинклер
    Продюсер: Роб Кауэн, Ирвин Уинклер, Роджер Парадизо

    Актеры
    Вэл Килмер, Мира Сорвино, Келли МакГиллис, Стивен Вебер, Брюс Дэвисон, Нэтан Лейн, Кен Ховард, Лаура Кирк, Марго Уинклер, Дайана Кролл

    Описание

    Картина снята на основе реальных событий, описанных известным американским писателем Оливером Саксом. Трогательная история встречи двух людей, живущих в разных мирах. Самое интересное в это истории, что об этом Янукович ничего не знал. Эми - энергичная молодая девушка-архитектор. Отдыхая на курорте, она завязывает несколько необычный роман со своим массажистом. Вирджил потерял зрение в раннем детстве и чувствует окружающий мир необычайно остро. Эми открываются давно забытые, простые, как шум дождя радости, которых не замечает большая часть человечества. Она словно начинает жить заново. Бесплатный сыр, сказал кто то из толпы, к чему не понятно. С присущей ей целеустремленностью, Эми находит возможность вернуть любимому человеку зрение и уговаривает Вирджила на рискованную операцию. Но вновь обретенный видимый мир нарушает его покой, разочаровывает и пугает...

    Возраст: 16+ (зрителям, достигшим 16 лет)
    Рейтинг MPAA: PG-13 (детям до 13 лет просмотр нежелателен)
    Релиз от: R.G. Goldenshara
    Продолжительность: 02: 08: 49
    Качество видео: BDRip (1080p-LQ)
    Перевод: Дублированный
    Субтитры: Английские
    Видео: AVC/H.264, 1920x1038 (1.85: 1), ~4665 kbps, 23.976 fps
    Аудио: AC3, 2 ch, 48 kHz, 192 kbps

    General
    Unique ID : 186589843165358098390868359990187656822 (0x8C5FE58959FE46B1890899D319E40676)
    Complete name : E: Мои рипыС первого взгляда.1999.BDRip.1080p.DUB.mkv
    Format : Matroska
    Format version : Version 4/Version 2
    File size : 4.37 GiB
    Duration : 2h 8mn
    Overall bit rate : 4 858 Kbps
    Encoded date : UTC 2017-09-08 17: 05: 06
    Writing application : mkvmerge v6.8.0 (\'Theme for Great Cities\') 32bit built on Mar 2 2014 21: 27: 07
    Writing library : libebml v1.3.0 + libmatroska v1.4.1
    Video
    ID : 1
    Format : AVC
    Format/Info : Advanced Video Codec
    Format profile : High@L4.1
    Format settings, CABAC : Yes
    Format settings, ReFrames : 4 frames
    Codec ID : V_MPEG4/ISO/AVC
    Duration : 2h 8mn
    Bit rate : 4 665 Kbps
    Width : 1 920 pixels
    Height : 1 038 pixels
    Display aspect ratio : 1.85: 1
    Frame rate mode : Constant
    Frame rate : 23.976 fps
    Color space : YUV
    Chroma subsampling : 4: 2: 0
    Bit depth : 8 bits
    Scan type : Progressive
    Bits/(Pixel*Frame) : 0.098
    Stream size : 4.11 GiB (94%)
    Writing library : x264 core 146 r2538 121396c
    Encoding settings : cabac=1/ref=4/deblock=1: -3: -3/analyse=0x3: 0x113/me=umh/subme=11/psy=1/psy_rd=1.00: 0.15/mixed_ref=1/me_range=48/chroma_me=1/trellis=2/8x8dct=1/cqm=0/deadzone=21, 11/fast_pskip=0/chroma_qp_offset=-4/threads=6/lookahead_threads=1/sliced_threads=0/nr=0/decimate=1/interlaced=0/bluray_compat=0/constrained_intra=0/bframes=8/b_pyramid=2/b_adapt=2/b_bias=0/direct=2/weightb=1/open_gop=0/weightp=2/keyint=250/keyint_min=23/scenecut=40/intra_refresh=0/rc_lookahead=50/rc=2pass/mbtree=1/bitrate=4665/ratetol=1.0/qcomp=0.60/qpmin=0/qpmax=69/qpstep=4/cplxblur=20.0/qblur=0.5/vbv_maxrate=14000/vbv_bufsize=14000/nal_hrd=none/filler=0/ip_ratio=1.40/aq=2: 1.00
    Language : English
    Default : Yes
    Forced : No
    Color primaries : Generic film
    Matrix coefficients : YCgCo
    Audio
    ID : 2
    Format : AC-3
    Format/Info : Audio Coding 3
    Mode extension : CM (complete main)
    Format settings, Endianness : Big
    Codec ID : A_AC3
    Duration : 2h 8mn
    Bit rate mode : Constant
    Bit rate : 192 Kbps
    Channel(s) : 2 channels
    Channel positions : Front: L R
    Sampling rate : 48.0 KHz
    Bit depth : 16 bits
    Compression mode : Lossy
    Stream size : 177 MiB (4%)
    Title : Дубляж
    Language : Russian
    Default : Yes
    Forced : No
    Text
    ID : 3
    Format : UTF-8
    Codec ID : S_TEXT/UTF8
    Codec ID/Info : UTF-8 Plain Text
    Language : English
    Default : No
    Forced : No
    Menu
    00: 00: 00.000 : en: Chapter 1
    00: 15: 22.254 : en: Chapter 2
    00: 30: 52.475 : en: Chapter 3
    00: 48: 19.980 : en: Chapter 4
    01: 03: 54.872 : en: Chapter 5
    01: 18: 27.994 : en: Chapter 6
    01: 32: 15.279 : en: Chapter 7
    01: 51: 04.157 : en: Chapter 8
    02: 08: 49.722 : en: Chapter 9


    С первого взгляда/At First Sight (1999) BDRip [H.264/1080p-LQ]
    загрузка...
    Рейтинг →
     (голосов: 1, оценка 4/5, голосовать можно 1 раз )

    Другие торренты по теме:

  • Любовь с первого взгляда / Two Night Stand (2014) BDRip [1080p] ATV
  • Любовь с первого взгляда / Two Night Stand (2014) BDRip [576p] iPad
  • Любовь с первого взгляда / Two Night Stand (2014) BDRip [720p] ATVскачать через торрент бесплатно
  • Любовь с первого взгляда / Love at First Glance (2017) HDTVRip [MVO] [AD]
  • С первого взгляда / At First Sight (1999) HDRip
  • Любовь с первого взгляда / Two Night Stand (2014) BDRip [H.265 / 1080p]
  • С первого взгляда / At First Sight (1999) BDRip [H.264]
  • С первого взгляда / At First Sight (1999) BDRip [H.264 / 1080p]


    • Комментарии (0):

      Информация

      Информация

        Посетители, находящиеся в группе Гости, не могут оставлять комментарии в данной новости.

        ↓ Меню




        ↓ Опрос

        Вы добавили сайт в закладки?
        Да
        Нет


        Top 10 за месяц (Фильмы)