.
Авторизация | Регистрация
Хочешь лучшие торренты? Добавь свой email!
Добавить

Торрент скачать бесплатно

» » Кинг Конг / King Kong (2005) BDRip [H.264 / 1080p-LQ] [Extended Cut] торрент скачать бесплатно




    Кинг Конг / King Kong (2005) BDRip [H.264 / 1080p-LQ] [Extended Cut] торрент скачать бесплатно

    Опубликовал: Админ | Дата: 10-09-2017, 11:46 | Просмотров: 0

    Производство: Новая Зеландия, США, Германия/Universal Pictures
    Жанр: Боевик, Драма, Мелодрама, Приключения, Фэнтези
    Режиссер: Питер Джексон

    Актеры
    Наоми Уоттс, Джек Блэк, Эдриан Броуди, Томас Кречманн, Колин Хэнкс, Энди Серкис, Эван Парк, Джейми Белл, Лобо Чан, Джон Самнер

    Описание

    В 1930-м году съемочная группа под предводительством режиссера-неудачника Карла Дэнхэма отправляется на загадочный Остров Черепа неподалеку от Суматры, чтобы изучать легенды о гигантской горилле по кличке Конг. По прибытии на место они обнаруживают, что Кинг Конг и правда существует.
    Горилла живет в самой чаще непроходимых джунглей, где помимо него, спрятанные от всего мира, обитают многие создания из доисторических времен. Исследователи оказываются между двух огней - с одной стороны Кинг Конг, а с другой - его враги динозавры...

    Возраст: 12+ (зрителям, достигшим 12 лет)
    Рейтинг MPAA: PG-13 (детям до 13 лет просмотр нежелателен)
    Награды и номинации
    Релиз от: Sanlex
    Продолжительность: 03: 20: 07
    Качество видео: BDRip (1080p-LQ)
    Перевод: Дублированный (BD EUR) + (псевдо-дубляж на расширенные вставки)
    Язык субтитров: Русские, английские
    Видео: MPEG-4/AVC/H.264, 1920x816 (2.35: 1), ~4 770 Kbps, 23.976 fps
    Аудио: AC3, 6 ch, 48 kHz, 448 Kbps - Русский (BD EUR)
    Аудио: AC3, 6 ch, 48 kHz, 448 Kbps - Английский (Оригинал)
    Код: выделить все

    General
    Unique ID : 208232834143879560086089831431551492731 (0x9CA82F60A1B34F87BA0CBF8D27E2A27B)
    Format : Matroska
    Format version : Version 2
    File size : 7.95 GiB
    Duration : 3h 20mn
    Overall bit rate : 5 689 Kbps
    Encoded date : UTC 2017-09-08 22:36:12
    Writing application : mkvmerge v7.6.0 (\'Garden of Dreams\') 32bit built on Feb 11 2015 00:18:47
    Writing library : libebml v1.3.1 + libmatroska v1.4.2
    Video
    ID : 1
    Format : AVC
    Format/Info : Advanced Video Codec
    Format profile :High@L4.1
    Format settings, CABAC : Yes
    Format settings, ReFrames : 4 frames
    Codec ID : V_MPEG4/ISO/AVC
    Duration : 3h 20mn
    Bit rate : 4 770 Kbps
    Width : 1 920 pixels
    Height : 816 pixels
    Display aspect ratio : 2.35:1
    Frame rate mode : Constant
    Frame rate : 23.976 fps
    Color space : YUV
    Chroma subsampling : 4:2:0
    Bit depth : 8 bits
    Scan type : Progressive
    Bits/(Pixel*Frame) : 0.127
    Stream size : 6.54 GiB (82%)
    Title : Кинг Конг/King Kong (2005)
    Writing library : x264 core 144 r2525 40bb568
    Encoding settings : cabac=1/ref=4/deblock=1:-1:-1/analyse=0x3:0x113/me=umh/subme=10/psy=1/psy_rd=1.00:0.00/mixed_ref=1/me_range=32/chroma_me=1/trellis=2/8x8dct=1/cqm=0/deadzone=21, 11/fast_pskip=0/chroma_qp_offset=-2/threads=6/lookahead_threads=1/sliced_threads=0/nr=0/decimate=1/interlaced=0/bluray_compat=0/constrained_intra=0/bframes=8/b_pyramid=2/b_adapt=2/b_bias=0/direct=3/weightb=1/open_gop=0/weightp=2/keyint=240/keyint_min=24/scenecut=40/intra_refresh=0/rc_lookahead=60/rc=2pass/mbtree=0/bitrate=4770/ratetol=1.0/qcomp=0.60/qpmin=0/qpmax=69/qpstep=4/cplxblur=20.0/qblur=0.5/vbv_maxrate=14000/vbv_bufsize=14000/nal_hrd=none/filler=0/ip_ratio=1.40/pb_ratio=1.30/aq=1:1.00
    Language : English
    Default : Yes
    Forced : No
    Audio #1
    ID : 2
    Format : AC-3
    Format/Info : Audio Coding 3
    Mode extension : CM (complete main)
    Format settings, Endianness : Big
    Codec ID : A_AC3
    Duration : 3h 20mn
    Bit rate mode : Constant
    Bit rate : 448 Kbps
    Channel(s) : 6 channels
    Channel positions : Front: L C R, Side: L R, LFE
    Sampling rate : 48.0 KHz
    Compression mode : Lossy
    Stream size : 641 MiB (8%)
    Language : Russian
    Default : Yes
    Forced : No
    Audio #2
    ID : 3
    Format : AC-3
    Format/Info : Audio Coding 3
    Mode extension : CM (complete main)
    Format settings, Endianness : Big
    Codec ID : A_AC3
    Duration : 3h 20mn
    Bit rate mode : Constant
    Bit rate : 448 Kbps
    Channel(s) : 6 channels
    Channel positions : Front: L C R, Side: L R, LFE
    Sampling rate : 48.0 KHz
    Compression mode : Lossy
    Stream size : 641 MiB (8%)
    Language : English
    Default : No
    Forced : No
    Text #1
    ID : 4
    Format : PGS
    Muxing mode : zlib
    Codec ID : S_HDMV/PGS
    Codec ID/Info : Picture based subtitle format used on BDs/HD-DVDs
    Language : Russian
    Default : Yes
    Forced : No
    Text #2
    ID : 5
    Format : PGS
    Muxing mode : zlib
    Codec ID : S_HDMV/PGS
    Codec ID/Info : Picture based subtitle format used on BDs/HD-DVDs
    Language : English
    Default : No
    Forced : No

    Скриншоты для ознакомления



    Все одноименные релизы в Клубе
    Время раздачи: 24/7 (до появления первых 3-5 скачавших), дальше по возможности

    Кинг Конг/King Kong (2005) BDRip [H.264/1080p-LQ] [Extended Cut]
    загрузка...
    Рейтинг →
     (голосов: 1, оценка 3/5, голосовать можно 1 раз )

    Другие торренты по теме:

  • Кинг Конг / King Kong (2005) BDRip [1080p] [Extended Cut] [hand made 60fps] скачать через торрент бесплатно
  • Кинг Конг / King Kong (2005) BDRip [H.264 / 1080p] [Theatrical Cut] скачать через торрент бесплатно
  • Кинг Конг / King Kong (2005) BDRip [H.264 / 720p] [Extended cut] скачать через торрент бесплатно
  • Кинг Конг / King Kong (2005) BDRip [H.264 / 1080p-LQ] [Extended Cut] скачать через торрент бесплатно
  • Кинг Конг / King Kong (2005) BDRip [H.264 / 720p] [Extended Cut]
  • Кинг Конг / King Kong (2005) BDRip [H.265 / 1080p] [Extended Cut]
  • Кинг Конг / King Kong (2005) HDTVRip [H.264 / 1080p] [Extended Cut] [Open Matte]
  • Кинг Конг: Остров черепа / Kong: Skull Island (2017) WEBRip [H.264 / 1080p] [Трейлер]


    • Комментарии (0):

      Информация

      Информация

        Посетители, находящиеся в группе Гости, не могут оставлять комментарии в данной новости.

        ↓ Меню




        ↓ Опрос

        Вы добавили сайт в закладки?
        Да
        Нет


        Top 10 за месяц (Фильмы)