.
Авторизация | Регистрация
Хочешь лучшие торренты? Добавь свой email!
Добавить

Торрент скачать бесплатно

» » Бессердечные вороны / The Unkindness of Ravens (2016) WEBRip [H.264 / 1080p-LQ] [AVO] торрент скачать бесплатно




    Бессердечные вороны / The Unkindness of Ravens (2016) WEBRip [H.264 / 1080p-LQ] [AVO] торрент скачать бесплатно

    Опубликовал: Админ | Дата: 10-09-2017, 11:46 | Просмотров: 0

    Производство: Великобритания, 3rd Monkey Productions, Dark Dunes Productions, Hex Media
    Жанр: Ужасы, Драма
    Режиссер: Лаури Брюстер

    Актеры
    Майкл Брюстер, Росс Кэмбелл, Леон Керрингтон, Дэниел Кейси, Даги Кларк, Бенджамин Фергюсон, Аманда Джиллилэнд, Джеми Скотт Гордон, Джеми Гаррион-Грюнди, Марк Хантер

    Описание

    Эндрю- ветеран войны в Афганистане, проходя реабилитацию, отправляется в пустующий домик, расположенный на равнинах Шотландии. Там он должен побороть своих демонов, чтобы вернуться к нормальной жизни.

    Релиз от: BadBajo
    Продолжительность: 01: 25: 28
    Качество видео: WEBRip
    Перевод: Одноголосый закадровый, А.Важенин (BadBajo)
    Автор перевода: BadBajo
    Субтитры: Английские (отключаемые)
    Видео: AVC/H.264, 1920х916, ~13, 2 Mbps
    Аудио: AC3, 2 ch, 384 Kbps l Русский VO, BadBajo
    Аудио: EAC3, 6 ch, 224 Kbps l Английский

    Complete name : The.Unkindness.of.Ravens.2016.1080p.WEB-DL_rus_BadBajo.mkv
    Format : Matroska
    Format version : Version 4/Version 2
    File size : 8.25 GiB
    Duration : 1 h 25 min
    Overall bit rate mode : Variable
    Overall bit rate : 13.8 Mb/s
    Movie name : The.Unkindness.of.Ravens.2016.1080p.WEB-DL_rus_BadBajo
    Encoded date : UTC 2017-09-10 01: 15: 37
    Writing application : mkvmerge v13.0.0 (\'The Juggler\') 64bit
    Writing library : libebml v1.3.4 + libmatroska v1.4.5
    Cover : Yes
    Attachments : cover.jpg
    Video
    ID : 1
    Format : AVC
    Format/Info : Advanced Video Codec
    Format profile : High@L4
    Format settings, CABAC : Yes
    Format settings, RefFrames : 4 frames
    Codec ID : V_MPEG4/ISO/AVC
    Duration : 1 h 25 min
    Bit rate mode : Variable
    Bit rate : 13.2 Mb/s
    Maximum bit rate : 15.0 Mb/s
    Width : 1 920 pixels
    Height : 816 pixels
    Display aspect ratio : 2.35: 1
    Frame rate mode : Constant
    Frame rate : 25.000 FPS
    Color space : YUV
    Chroma subsampling : 4: 2: 0
    Bit depth : 8 bits
    Scan type : Progressive
    Bits/(Pixel*Frame) : 0.337
    Stream size : 7.89 GiB (96%)
    Default : Yes
    Forced : No
    Color range : Limited
    Color primaries : BT.709
    Transfer characteristics : BT.709
    Matrix coefficients : BT.709
    Audio #1
    ID : 2
    Format : AC-3
    Format/Info : Audio Coding 3
    Format settings, Endianness : Big
    Codec ID : A_AC3
    Duration : 1 h 25 min
    Bit rate mode : Constant
    Bit rate : 384 kb/s
    Channel(s) : 2 channels
    Channel positions : Front: L R
    Sampling rate : 48.0 kHz
    Frame rate : 31.250 FPS (1536 SPF)
    Bit depth : 16 bits
    Compression mode : Lossy
    Stream size : 235 MiB (3%)
    Title : The.Unkindness.of.Ravens.2016.1080p.WEB-DL_rus_BadBajo
    Language : Russian
    Service kind : Complete Main
    Default : Yes
    Forced : Yes
    Audio #2
    ID : 3
    Format : E-AC-3
    Format/Info : Enhanced Audio Coding 3
    Format settings, Endianness : Big
    Codec ID : A_EAC3
    Duration : 1 h 25 min
    Bit rate mode : Constant
    Bit rate : 224 kb/s
    Channel(s) : 2 channels
    Channel positions : Front: L R
    Sampling rate : 48.0 kHz
    Frame rate : 187.500 FPS (256 SPF)
    Compression mode : Lossy
    Stream size : 137 MiB (2%)
    Language : English
    Service kind : Complete Main
    Default : No
    Forced : No
    Text
    ID : 4
    Format : UTF-8
    Codec ID : S_TEXT/UTF8
    Codec ID/Info : UTF-8 Plain Text
    Duration : 1 h 24 min
    Bit rate : 20 b/s
    Count of elements : 516
    Stream size : 12.8 KiB (0%)
    Language : English
    Default : No
    Forced : No

    Скриншоты для ознакомления






    Бессердечные вороны/The Unkindness of Ravens (2016) WEBRip [H.264/1080p-LQ] [AVO]
    загрузка...
    Рейтинг →
     (голосов: 1, оценка 3/5, голосовать можно 1 раз )

    Другие торренты по теме:



      Комментарии (0):

      Информация

      Информация

        Посетители, находящиеся в группе Гости, не могут оставлять комментарии в данной новости.

        ↓ Меню




        ↓ Опрос

        Вы добавили сайт в закладки?
        Да
        Нет


        Top 10 за месяц (Фильмы)