.
Авторизация | Регистрация
Хочешь лучшие торренты? Добавь свой email!
Добавить

Торрент скачать бесплатно

» » Сильва (1944) DVDRip торрент скачать бесплатно




    Сильва (1944) DVDRip торрент скачать бесплатно

    Опубликовал: Админ | Дата: 10-09-2017, 11:46 | Просмотров: 2

    Производство: СССР
    Жанр: Мюзикл, комедия
    Режиссер: Александр Ивановский

    Актеры
    Зоя Смирнова-Немирович, Нияз Даутов, Нина Динтан, Сергей Дыбчо, Алиса Корвет, Георгий Кугушев, Сергей Мартинсон, Александр Матковский, Маргарита Сакалис, Владимир Таскин

    Описание

    Офицер Эдвин Воляпюк и эстрадная певица Сильва Вареску любят друг друга. Но старый князь Воляпюк, мечтая о выгодной партии, решает женить единственного наследника на своей племяннице Стасси. Граф Бони Кониславу — друг Эдвина — вводит Сильву в салон Воляпюка под видом аристократки. Обман вскоре раскрывается, но, тем не менее, после ссор и обид влюбленные соединяют свои судьбы.

    Возраст: 0+ (для любой зрительской аудитории)
    Продолжительность: 01: 17: 54
    Качество видео: DVDRip
    Субтитры: Отсутствуют
    Видео: DivX 5, 704x528 (4: 3), ~2188 Kbps
    Аудио: AC3, 2 ch, 320 Kbps

    Общее
    Полное имя : F: Сильва (1944).avi
    Формат : AVI
    Формат/Информация : Audio Video Interleave
    Размер файла : 1, 37 Гбайт
    Продолжительность : 1 ч. 17 м.
    Общий поток : 2518 Кбит/сек
    Программа кодирования : VirtualDubMod 1.5.10.2 (build 2540/release)
    Библиотека кодирования : VirtualDubMod build 2540/release
    Видео
    Идентификатор : 0
    Формат : MPEG-4 Visual
    Параметр BVOP формата : 1
    Параметр QPel формата : Нет
    Параметр GMC формата : Без точки перехода
    Параметр матрицы формата : Default (H.263)
    Режим смешивания : Сжатый битовый поток
    Идентификатор кодека : DX50
    Идентификатор кодека/Подсказка : DivX 5
    Продолжительность : 1 ч. 17 м.
    Битрейт : 2188 Кбит/сек
    Номинальный битрейт : 12, 6 Мбит/сек
    Ширина : 704 пикселя
    Высота : 528 пикселей
    Соотношение сторон : 4: 3
    Частота кадров : 25, 000 кадров/сек
    Цветовое пространство : YUV
    Субдискретизация насыщенности : 4: 2: 0
    Битовая глубина : 8 бит
    Тип развёртки : Прогрессивная
    Метод сжатия : С потерями
    Бит/(Пиксели*Кадры) : 0.235
    Размер потока : 1, 19 Гбайт (87%)
    Библиотека кодирования : DivX 5.2.1 (WaffleDay) (UTC 2004-09-08)
    Аудио
    Идентификатор : 1
    Формат : AC-3
    Формат/Информация : Audio Coding 3
    Параметр Endianness формата : Big
    Идентификатор кодека : 2000
    Продолжительность : 1 ч. 17 м.
    Вид битрейта : Постоянный
    Битрейт : 320 Кбит/сек
    Каналы : 2 канала
    Расположение каналов : Front: L R
    Частота : 48, 0 КГц
    Частота кадров : 31, 250 кадров/сек (1536 SPF)
    Битовая глубина : 16 бит
    Метод сжатия : С потерями
    Размер потока : 178 Мбайт (13%)
    Выравнивание : Разделение по промежуткам
    Продолжительность промежутка : 40 мс. (1, 00 видеокадр)
    Время предзагрузки промежутка : 500 мс.
    ServiceKind/String : Complete Main

    Скриншоты для ознакомления



    Все одноименные релизы в Клубе
    Время раздачи: 24/7 (круглосуточно) (до появления первых 3-5 скачавших)

    Сильва (1944) DVDRip
    загрузка...
    Рейтинг →
     (голосов: 1, оценка 3/5, голосовать можно 1 раз )

    Другие торренты по теме:

  • Сильва (1981) DVDRip [H.264]


    • Комментарии (0):

      Информация

      Информация

        Посетители, находящиеся в группе Гости, не могут оставлять комментарии в данной новости.

        ↓ Меню




        ↓ Опрос

        Вы добавили сайт в закладки?
        Да
        Нет


        Top 10 за месяц (Фильмы)