.
Авторизация | Регистрация
Хочешь лучшие торренты? Добавь свой email!
Добавить

Торрент скачать бесплатно

» » Оно приходит ночью / It Comes at Night (2017) WEB-DLRip [MVO] [AD] торрент скачать бесплатно




    Оно приходит ночью / It Comes at Night (2017) WEB-DLRip [MVO] [AD] торрент скачать бесплатно

    Опубликовал: Админ | Дата: 2-09-2017, 05:00 | Просмотров: 3

    Производство: США
    Жанр: Ужасы, детектив
    Режиссер: Трей Эдвард Шульц

    Актеры
    Джоэл Эдгертон, Кристофер Эбботт, Кармен Эджого, Райли Кио, Келвин Харрисон, Гриффин Роберт Фолкнер, Дэвид Пендлтон, Мики, Чейз Джолиет, Мик О’Рурк

    Описание
    Цивилизацию поражает зловещая эпидемия, превращающая инфицированных в чудовищных монстров. Мир погружается в невыносимый ужас. Спасаясь от гибели, отец прячет свою семью в заброшенном доме в чаще леса. Однажды на пороге дома появляются незнакомцы. Но как спастись от безумия, когда ад внутри тебя?..

    Возраст: 18+ (зрителям, достигшим 18 лет. запрещено для детей)
    Рейтинг MPAA: R (лицам до 17 лет обязательно присутствие взрослого)
    Дата мировой премьеры: 29 апреля 2017
    Дата премьеры в России: 24 августа 2017

    Продолжительность: 01: 33: 10
    Качество видео: WEB-DLRip
    Перевод: Профессиональный многоголосый (Синема УС)
    Субтитры: Отсутствуют
    Реклама: Присутствуют вставки голосовой, видео и текстовой рекламы!
    Видео: MPEG4, XviD, 720x304 (2.35: 1), 23.976 fps, 1 712 Kbps (0.326 bit/pixel)
    Аудио: AC-3, 48.0 KHz, 2 ch, 384 Kbps, CBR

    Общее
    Полное имя : D: NNMОно приходит ночьюOno prihodit nochju 2017 WEB-DLRip.avi
    Формат : AVI
    Формат/Информация : Audio Video Interleave
    Размер файла : 1, 37 Гбайт
    Продолжительность : 1 ч. 33 м.
    Общий поток : 2105 Кбит/сек
    Программа кодирования : VirtualDubMod 1.5.10.2 (build 2540/release)
    Библиотека кодирования : VirtualDubMod build 2540/release
    Видео
    Идентификатор : 0
    Формат : MPEG-4 Visual
    Профиль формата : Advanced Simple@L5
    Параметр BVOP формата : 2
    Параметр QPel формата : Нет
    Параметр GMC формата : Без точки перехода
    Параметр матрицы формата : Default (MPEG)
    Идентификатор кодека : XVID
    Идентификатор кодека/Подсказка : XviD
    Продолжительность : 1 ч. 33 м.
    Битрейт : 1712 Кбит/сек
    Ширина : 720 пикселей
    Высота : 304 пикселя
    Соотношение сторон : 2, 35: 1
    Частота кадров : 23, 976 (24000/1001) кадра/сек
    Цветовое пространство : YUV
    Субдискретизация насыщенности : 4: 2: 0
    Битовая глубина : 8 бит
    Тип развёртки : Прогрессивная
    Метод сжатия : С потерями
    Бит/(Пиксели*Кадры) : 0.326
    Размер потока : 1, 11 Гбайт (81%)
    Библиотека кодирования : XviD 1.2.1 (UTC 2008-12-04)
    Аудио
    Идентификатор : 1
    Формат : AC-3
    Формат/Информация : Audio Coding 3
    Расширение режима : CM (complete main)
    Параметр Endianness формата : Big
    Идентификатор кодека : 2000
    Продолжительность : 1 ч. 33 м.
    Вид битрейта : Постоянный
    Битрейт : 384 Кбит/сек
    Каналы : 2 канала
    Расположение каналов : Front: L R
    Частота : 48, 0 КГц
    Частота кадров : 31, 250 кадров/сек (1536 spf)
    Битовая глубина : 16 бит
    Метод сжатия : С потерями
    Размер потока : 256 Мбайт (18%)
    Выравнивание : Разделение по промежуткам
    Продолжительность промежутка : 42 мс. (1, 00 видеокадр)
    Время предзагрузки промежутка : 500 мс.

    Скриншоты для ознакомления



    Все релизы фильма Оно приходит ночью на NNM-Club
    Время раздачи: Круглосуточно до 10 скачавших

    Онлайн видео Оно приходит ночью



    Оно приходит ночью/It Comes at Night (2017) WEB-DLRip [MVO] [AD]
    загрузка...
    Рейтинг →
     (голосов: 1, оценка 4/5, голосовать можно 1 раз )

    Другие торренты по теме:

  • Оно приходит ночью / It Comes at Night (2017) WEB-DLRip [H.264 / 720p-LQ] [Звук с TS] [AD]
  • Оно приходит ночью / It Comes at Night (2017) WEB-DL [H.264 / 1080p-LQ] [EN / EN Sub]
  • Оно приходит ночью / It Comes at Night (2017) WEB-DLRip [H.264 / 1080p-LQ] [MVO] [AD]
  • Оно приходит ночью / It Comes at Night (2017) BDRemux [H.264 / 1080p]
  • Оно приходит ночью / It Comes at Night (2017) HDRip [H.264]
  • Оно приходит ночью / It Comes at Night (2017) BDRip [H264 / 720p]
  • Оно приходит ночью / It Comes at Night (2017) HDRip [H.264]
  • Оно приходит ночью / It Comes at Night (2017) BDRemux [H.264 / 1080p] [EN / EN, Sp Sub]


    • Комментарии (0):

      Информация

      Информация

        Посетители, находящиеся в группе Гости, не могут оставлять комментарии в данной новости.

        ↓ Меню




        ↓ Опрос

        Вы добавили сайт в закладки?
        Да
        Нет


        Top 10 за месяц (Фильмы)