.
Авторизация | Регистрация
Хочешь лучшие торренты? Добавь свой email!
Добавить

Торрент скачать бесплатно

» » Кобра. Антитеррор (2003) WEBRip (серии 1-16 из 16) торрент скачать бесплатно




    Кобра. Антитеррор (2003) WEBRip (серии 1-16 из 16) торрент скачать бесплатно

    Опубликовал: Админ | Дата: 18-06-2017, 05:00 | Просмотров: 1

    Производство: Россия/Interactive Technology Group
    Жанр: боевик, криминал, детектив
    Режиссер: Игорь Апасян, Антон Сиверс, Юрий Кузьменко, Олег Фесенко

    Актеры
    Александр Терешко, Владимир Турчинский, Ольга Ломоносова, Александр Самойленко, Альберт Филозов, Дарья Мороз, Арнис Лицитис, Лембит Ульфсак, Антон Сиверс, Ромуальд Макаренко и др.

    Описание

    Группа специального реагирования борется с терроризмом. В тот момент, когда возникает угроза для государства, первым делом в противоборство с террором вступает отряд КОБРА (Команда Быстрого Реагирования).

    Возраст: 12+ (зрителям, достигшим 12 лет)
    Продолжительность: ~ 00: 43: 00 серия
    Качество видео: WEBRip
    Видео: Xvid, 720x400 (16: 9), ~1969 Kbps
    Аудио: AC3, 2 ch, 192 Kbps

    Общее
    Полное имя : D: Мои фильмыKobra_Antiterror_1-16iz16_2003_XviD_WEBRip1.Князь тьмы.(1 сер.).avi
    Формат : AVI
    Формат/Информация : Audio Video Interleave
    Размер файла : 555 Мбайт
    Продолжительность : 35 м. О таком странном сюжете не догадывалась даже Настя Каменских. 44 с.
    Общий поток : 2171 Кбит/сек
    Библиотека кодирования : VirtualDub build 35491/release
    Видео
    Идентификатор : 0
    Формат : MPEG-4 Visual
    Профиль формата : Advanced Simple@L5
    Параметр BVOP формата : 2
    Параметр QPel формата : Нет
    Параметр GMC формата : Без точки перехода
    Параметр матрицы формата : Default (H.263)
    Идентификатор кодека : XVID
    Идентификатор кодека/Подсказка : XviD
    Продолжительность : 35 м. 44 с.
    Битрейт : 1969 Кбит/сек
    Ширина : 720 пикселей
    Высота : 400 пикселей
    Соотношение сторон : 16: 9
    Частота кадров : 25, 000 кадров/сек
    Цветовое пространство : YUV
    Субдискретизация насыщенности : 4: 2: 0
    Битовая глубина : 8 бит
    Тип развёртки : Прогрессивная
    Метод сжатия : С потерями
    Бит/(Пиксели*Кадры) : 0.274
    Размер потока : 503 Мбайт (91%)
    Библиотека кодирования : XviD 67
    Аудио
    Идентификатор : 1
    Формат : AC-3
    Формат/Информация : Audio Coding 3
    Параметр Endianness формата : Big
    Идентификатор кодека : 2000
    Продолжительность : 35 м. 44 с.
    Вид битрейта : Постоянный
    Битрейт : 192 Кбит/сек
    Каналы : 2 канала
    Расположение каналов : Front: L R
    Частота : 48, 0 КГц
    Частота кадров : 31, 250 кадров/сек (1536 spf)
    Битовая глубина : 16 бит
    Метод сжатия : С потерями
    Размер потока : 49, 1 Мбайт (9%)
    Выравнивание : Соединение по промежуткам
    Продолжительность промежутка : 40 мс. (1, 00 видеокадр)
    Время предзагрузки промежутка : 512 мс.
    ServiceKind/String : Complete Main


    Скриншоты для ознакомления




    Онлайн видео Кобра. Антитеррор (2003) WEBRip (серии 1



    Кобра. Антитеррор (2003) WEBRip (серии 1-16 из 16)
    загрузка...
    Рейтинг →
     (голосов: 1, оценка 4/5, голосовать можно 1 раз )

    Другие торренты по теме:



      Комментарии (0):

      Информация

      Информация

        Посетители, находящиеся в группе Гости, не могут оставлять комментарии в данной новости.

        ↓ Меню




        ↓ Опрос

        Вы добавили сайт в закладки?
        Да
        Нет


        Top 10 за месяц (Фильмы)