.
Авторизация | Регистрация
Хочешь лучшие торренты? Добавь свой email!
Добавить

Торрент скачать бесплатно

» » Паршивая овца / Das schwarze Schaf (1960) DVDRip торрент скачать бесплатно




    Паршивая овца / Das schwarze Schaf (1960) DVDRip торрент скачать бесплатно

    Опубликовал: Админ | Дата: 18-06-2017, 05:00 | Просмотров: 0

    Производство: Германия (ФРГ)/Bavaria-Filmkunst GmbH
    Жанр: Комедия, Криминал, Детектив
    Режиссер: Хельмут Ашлей
    Продюсер: Уц Утерман, Клаус Хардт

    Актеры
    Хайнц Рюманн, Карл Шёнбёк, Мария Зебальдт, Зигфрид Ловиц, Лина Карстенс, Фриц Расп, Херберт Тиде, Фридрих Домин, Ханс Лейбельт, Розель Шефер

    Описание

    В приходе отца Брауна происходит таинственная смерть. Отец Браун подозревает, что это убийство и начинает расследование…

    Возраст: этот продукт не был классифицирован
    Рейтинг MPAA: этот продукт не был классифицирован
    Продолжительность: 01: 30: 06
    Качество видео: DVDRip
    Перевод: Одноголосый закадровый
    Субтитры: отсутствуют
    Видео: AVC/H.264, 696 х428, ~1925 Kbps, ~0.258 bit/pixel
    Аудио 1: MP3, 2 ch, 128 Kbps, 48.0 kHz - Русский
    Аудио 2: MP3, 2 ch, 128 Kbps, 48.0 kHz - Немецкий

    Общее
    Уникальный идентификатор : 130638467810677617583750872996154509790 (0x62480DBF94C14CC9816EE48A589509DE)
    Полное имя : C: UsersМихаилVideosПаршивая овца (1960).mkv
    Формат : Matroska
    Версия формата : Version 4/Version 2
    Размер файла : 1, 37 Гбайт
    Продолжительность : 1 ч. 30 м.
    Режим общего битрейта : Постоянный
    Общий поток : 2184 Кбит/сек
    Дата кодирования : UTC 2017-06-13 17: 10: 59/UTC 2017-06-13 17: 10: 59
    Программа кодирования : Lavf56.36.100
    Библиотека кодирования : Lavf56.36.100/Lavf56.36.100
    Видео
    Идентификатор : 3
    Формат : AVC
    Формат/Информация : Advanced Video Codec
    Профиль формата : Main@L3
    Параметр CABAC формата : Да
    Параметр ReFrames формата : 2 кадра
    Параметр GOP формата : M=1, N=25
    Идентификатор кодека : V_MPEG4/ISO/AVC
    Продолжительность : 1 ч. 30 м.
    Вид битрейта : Постоянный
    Битрейт : 1925 Кбит/сек
    Ширина : 696 пикселей
    Высота : 428 пикселей
    Соотношение сторон : 16: 10
    Режим частоты кадров : Постоянный
    Частота кадров : 25, 000 кадров/сек
    Цветовое пространство : YUV
    Субдискретизация насыщенности : 4: 2: 0
    Битовая глубина : 8 бит
    Тип развёртки : Прогрессивная
    Бит/(Пиксели*Кадры) : 0.258
    Размер потока : 1, 19 Гбайт (86%)
    Default : Да
    Forced : Нет
    Аудио #1
    Идентификатор : 1
    Формат : MPEG Audio
    Версия формата : Version 1
    Профиль формата : Layer 3
    Режим : Joint stereo
    Идентификатор кодека : A_MPEG/L3
    Идентификатор кодека/Подсказка : MP3
    Продолжительность : 1 ч. 30 м.
    Вид битрейта : Постоянный
    Битрейт : 128 Кбит/сек
    Каналы : 2 канала
    Частота : 48, 0 КГц
    Метод сжатия : С потерями
    Размер потока : 82, 5 Мбайт (6%)
    Default : Да
    Forced : Нет
    Аудио #2
    Идентификатор : 2
    Формат : MPEG Audio
    Версия формата : Version 1
    Профиль формата : Layer 3
    Режим : Joint stereo
    Идентификатор кодека : A_MPEG/L3
    Идентификатор кодека/Подсказка : MP3
    Продолжительность : 1 ч. 30 м.
    Вид битрейта : Постоянный
    Битрейт : 128 Кбит/сек
    Каналы : 2 канала
    Частота : 48, 0 КГц
    Метод сжатия : С потерями
    Размер потока : 82, 5 Мбайт (6%)
    Default : Да
    Forced : Нет


    Скриншоты для ознакомления




    Онлайн видео Паршивая овца



    Паршивая овца/Das schwarze Schaf (1960) DVDRip
    загрузка...
    Рейтинг →
     (голосов: 1, оценка 4/5, голосовать можно 1 раз )

    Другие торренты по теме:

  • Гуннар Столессен и др. | Паршивая овца [сборник] (1996) [FB2]
  • Паршивая овца / Black Sheep (2006) BDRip [H.264 / 1080p-LQ]


    • Комментарии (0):

      Информация

      Информация

        Посетители, находящиеся в группе Гости, не могут оставлять комментарии в данной новости.

        ↓ Меню




        ↓ Опрос

        Вы добавили сайт в закладки?
        Да
        Нет


        Top 10 за месяц (Фильмы)