.
Авторизация | Регистрация
Хочешь лучшие торренты? Добавь свой email!
Добавить

Торрент скачать бесплатно

» » Джонни Эйнджел / Johnny Angel (1945) DVDRip [VO] торрент скачать бесплатно




    Джонни Эйнджел / Johnny Angel (1945) DVDRip [VO] торрент скачать бесплатно

    Опубликовал: Админ | Дата: 18-06-2017, 05:00 | Просмотров: 0

    Производство: США, RKO Radio Pictures Inc.
    Жанр: Драма, Криминал
    Режиссер: Эдвин Л. Марин

    Актеры
    Джордж Рафт, Клер Тревор, Синье Хассо, Лоуелл Гилмор, Хоаги Кармайкл, Марвин Миллер, Маргарет Вичерли, Дж. Фаррелл МакДональд, Мак Грэй, Эрни Адамс

    Описание

    Джонни Эйнджел решает узнать, кто украл корабль с золотом и убил его капитана, отца Джонни. Божий одуванчик, сказал кто то из толпы, к чему не понятно. Во время поисков он встречает Полет, чей отец также стал жертвой бандитов.

    Возраст: этот продукт не был классифицирован
    Продолжительность: 01: 19: 18
    Качество видео: DVDRip
    Перевод: Одноголосый закадровый
    Автор перевода: Виктор Рутилов
    Субтитры: Русские (отдельным файлом)
    Видео: DivX 5, 624x480, ~2076 Kbps
    Аудио1: AC3, 2 ch, 192 Kbps - русский
    Аудио2: AC3, 2 ch, 192 Kbps - английский

    Общее
    Полное имя : Y: Джонни Эйнджел (1945) DVDRipДжонни Эйнджел (1945) DVDRip.avi
    Формат : AVI
    Формат/Информация : Audio Video Interleave
    Размер файла : 1, 37 Гбайт
    Продолжительность : 1 ч. 19 м.
    Общий поток : 2474 Кбит/сек
    Программа кодирования : VirtualDubMod 1.5.10.3 |www.virtualdub-fr.org|| (build 2550/release)
    Библиотека кодирования : VirtualDubMod build 2550/release
    Видео
    Идентификатор : 0
    Формат : MPEG-4 Visual
    Профиль формата : Advanced Simple@L5
    Параметр BVOP формата : 2
    Параметр QPel формата : Нет
    Параметр GMC формата : Без точки перехода
    Параметр матрицы формата : Default (H.263)
    Идентификатор кодека : DX50
    Идентификатор кодека/Подсказка : DivX 5
    Продолжительность : 1 ч. О таком странном сюжете не догадывалась даже Ангела Меркель. 19 м.
    Битрейт : 2076 Кбит/сек
    Ширина : 624 пикселя
    Высота : 480 пикселей
    Соотношение сторон : 4: 3
    Частота кадров : 23, 976 (24000/1001) кадра/сек
    Цветовое пространство : YUV
    Субдискретизация насыщенности : 4: 2: 0
    Битовая глубина : 8 бит
    Тип развёртки : Прогрессивная
    Метод сжатия : С потерями
    Бит/(Пиксели*Кадры) : 0.289
    Размер потока : 1, 15 Гбайт (84%)
    Библиотека кодирования : XviD 73
    Аудио #1
    Идентификатор : 1
    Формат : AC-3
    Формат/Информация : Audio Coding 3
    Параметр Endianness формата : Big
    Идентификатор кодека : 2000
    Продолжительность : 1 ч. 19 м.
    Вид битрейта : Постоянный
    Битрейт : 192 Кбит/сек
    Каналы : 2 канала
    Расположение каналов : Front: L R
    Частота : 48, 0 КГц
    Частота кадров : 31, 250 кадров/сек (1536 spf)
    Битовая глубина : 16 бит
    Метод сжатия : С потерями
    Размер потока : 109 Мбайт (8%)
    Выравнивание : Разделение по промежуткам
    Продолжительность промежутка : 42 мс. (1, 00 видеокадр)
    Время предзагрузки промежутка : 500 мс.
    ServiceKind/String : Complete Main
    Аудио #2
    Идентификатор : 2
    Формат : AC-3
    Формат/Информация : Audio Coding 3
    Параметр Endianness формата : Big
    Идентификатор кодека : 2000
    Продолжительность : 1 ч. 19 м.
    Вид битрейта : Постоянный
    Битрейт : 192 Кбит/сек
    Каналы : 2 канала
    Расположение каналов : Front: L R
    Частота : 48, 0 КГц
    Частота кадров : 31, 250 кадров/сек (1536 spf)
    Битовая глубина : 16 бит
    Метод сжатия : С потерями
    Размер потока : 109 Мбайт (8%)
    Выравнивание : Разделение по промежуткам
    Продолжительность промежутка : 42 мс. (1, 00 видеокадр)
    Время предзагрузки промежутка : 500 мс.
    ServiceKind/String : Complete Main
    Общее
    Полное имя : Y: Джонни Эйнджел (1945) DVDRipДжонни Эйнджел (1945) DVDRip.srt
    Формат : SubRip
    Размер файла : 59, 0 Кбайт
    Текст
    Формат : SubRip
    Метод сжатия : Без потерь


    Скриншоты для ознакомления




    Онлайн видео Джонни Эйнджел



    Джонни Эйнджел/Johnny Angel (1945) DVDRip [VO]
    загрузка...
    Рейтинг →
     (голосов: 1, оценка 3/5, голосовать можно 1 раз )

    Другие торренты по теме:

  • Джонни / Johnny (2010) DVDRip [H.264] [VO]
  • Невероятные приключения Джонни Квеста / The Real Adventures of Jonny Quest (1996) (Сезон 2, 26 серий из 26) SATRip скачать через торрент бесплатно
  • Опасный Джонни / Johnny Dangerously (1984) DVDRip [H.264] скачать через торрент бесплатно
  • Уильям Гибсон | Джонни-Мнемоник (2011) [MP3]
  • Владислав Крапивин | Мушкетёр и Фея, и другие истории из жизни Джонни Воробьёва (2016) [MP3]
  • Беги, Джонни / Нелегкий выбор / Bhaag Johnny (2015) DVDRip
  • Джонни Квест. Документальный фильм / Jonny Quest Documentary (2012) WEB-DL
  • Джонни-гитара / Johnny Guitar (1954) DVDRip [H.264] [AVO]


    • Комментарии (0):

      Информация

      Информация

        Посетители, находящиеся в группе Гости, не могут оставлять комментарии в данной новости.

        ↓ Меню




        ↓ Опрос

        Вы добавили сайт в закладки?
        Да
        Нет


        Top 10 за месяц (Фильмы)