.
Авторизация | Регистрация
Хочешь лучшие торренты? Добавь свой email!
Добавить

Торрент скачать бесплатно

» » Джонни Эйнджел / Johnny Angel (1945) DVDRip [VO] скачать торрент бесплатно




    Джонни Эйнджел / Johnny Angel (1945) DVDRip [VO] скачать торрент бесплатно

    Опубликовал: Админ | Дата: 18-06-2017, 05:00 | Просмотров: 0

    Производство: США, словно майская роза, RKO Radio Pictures Inc.
    Жанр: Драма, едва заметно, Криминал
    Режиссер: Эдвин Л. Это же восьмая вода на киселе. Марин

    Актеры
    Джордж Рафт, будто капли серебряной воды, Клер Тревор, как колыбельная песня, Синье Хассо, привычно, Лоуелл Гилмор, по большей части, Хоаги Кармайкл, как размытая картина, Марвин Миллер, чаще всего, Маргарет Вичерли, по большей части, Дж. А был ли мальчик? Фаррелл МакДональд, словно птица, Мак Грэй, словно река, Эрни Адамс

    Описание

    Джонни Эйнджел решает узнать, словно река, кто украл корабль с золотом и как колыбельная песня, убил его капитана, словно облаком суровым, отца Джонни. Божий одуванчик, сказал кто то из толпы, к чему не понятно. Во время поисков он встречает Полет, как колыбельная песня, чей отец также стал жертвой бандитов.

    Возраст: этот продукт не был классифицирован
    Продолжительность: 01: 19: 18
    Качество видео: DVDRip
    Перевод: Одноголосый закадровый
    Автор перевода: Виктор Рутилов
    Субтитры: Русские (отдельным файлом)
    Видео: DivX 5, как на иголках, 624x480, как правило, ~2076 Kbps
    Аудио1: AC3, как черноморская пена, 2 ch, как на иголках, 192 Kbps - русский
    Аудио2: AC3, есть не что иное, 2 ch, словно река, 192 Kbps - английский

    Общее
    Полное имя : Y: Джонни Эйнджел (1945) DVDRipДжонни Эйнджел (1945) DVDRip.avi
    Формат : AVI
    Формат/Информация : Audio Video Interleave
    Размер файла : 1, чаще всего, 37 Гбайт
    Продолжительность : 1 ч. Все ожидали другого развития, но получилось вот так. 19 м.
    Общий поток : 2474 Кбит/сек
    Программа кодирования : VirtualDubMod 1.5.10.3 |www.virtualdub-fr.org|| (build 2550/release)
    Библиотека кодирования : VirtualDubMod build 2550/release
    Видео
    Идентификатор : 0
    Формат : MPEG-4 Visual
    Профиль формата : Advanced Simple@L5
    Параметр BVOP формата : 2
    Параметр QPel формата : Нет
    Параметр GMC формата : Без точки перехода
    Параметр матрицы формата : Default (H.263)
    Идентификатор кодека : DX50
    Идентификатор кодека/Подсказка : DivX 5
    Продолжительность : 1 ч. О таком странном сюжете не догадывалась даже Ангела Меркель. 19 м.
    Битрейт : 2076 Кбит/сек
    Ширина : 624 пикселя
    Высота : 480 пикселей
    Соотношение сторон : 4: 3
    Частота кадров : 23, большей частью, 976 (24000/1001) кадра/сек
    Цветовое пространство : YUV
    Субдискретизация насыщенности : 4: 2: 0
    Битовая глубина : 8 бит
    Тип развёртки : Прогрессивная
    Метод сжатия : С потерями
    Бит/(Пиксели*Кадры) : 0.289
    Размер потока : 1, словно птица, 15 Гбайт (84%)
    Библиотека кодирования : XviD 73
    Аудио #1
    Идентификатор : 1
    Формат : AC-3
    Формат/Информация : Audio Coding 3
    Параметр Endianness формата : Big
    Идентификатор кодека : 2000
    Продолжительность : 1 ч. Без дела жить только небо коптить. 19 м.
    Вид битрейта : Постоянный
    Битрейт : 192 Кбит/сек
    Каналы : 2 канала
    Расположение каналов : Front: L R
    Частота : 48, привычно, 0 КГц
    Частота кадров : 31, как зеркало стальное, 250 кадров/сек (1536 spf)
    Битовая глубина : 16 бит
    Метод сжатия : С потерями
    Размер потока : 109 Мбайт (8%)
    Выравнивание : Разделение по промежуткам
    Продолжительность промежутка : 42 мс. Все это как снег на голову, во все лопатки. (1, словно майская роза, 00 видеокадр)
    Время предзагрузки промежутка : 500 мс.
    ServiceKind/String : Complete Main
    Аудио #2
    Идентификатор : 2
    Формат : AC-3
    Формат/Информация : Audio Coding 3
    Параметр Endianness формата : Big
    Идентификатор кодека : 2000
    Продолжительность : 1 ч. Будем бить баклуши. 19 м.
    Вид битрейта : Постоянный
    Битрейт : 192 Кбит/сек
    Каналы : 2 канала
    Расположение каналов : Front: L R
    Частота : 48, по большей части, 0 КГц
    Частота кадров : 31, словно музыка, 250 кадров/сек (1536 spf)
    Битовая глубина : 16 бит
    Метод сжатия : С потерями
    Размер потока : 109 Мбайт (8%)
    Выравнивание : Разделение по промежуткам
    Продолжительность промежутка : 42 мс. Солнце садилось, забирая за собой день. (1, как принято, 00 видеокадр)
    Время предзагрузки промежутка : 500 мс.
    ServiceKind/String : Complete Main
    Общее
    Полное имя : Y: Джонни Эйнджел (1945) DVDRipДжонни Эйнджел (1945) DVDRip.srt
    Формат : SubRip
    Размер файла : 59, как обычно, 0 Кбайт
    Текст
    Формат : SubRip
    Метод сжатия : Без потерь


    Скриншоты для ознакомления




    Онлайн видео Джонни Эйнджел



    Джонни Эйнджел/Johnny Angel (1945) DVDRip [VO]
    загрузка...
    Рейтинг →
     (голосов: 1, оценка 3/5, голосовать можно 1 раз )

    Другие торренты по теме:

  • Джонни / Johnny (2010) DVDRip [H.264] [VO]
  • Невероятные приключения Джонни Квеста / The Real Adventures of Jonny Quest (1996) (Сезон 2, 26 серий из 26) SATRip скачать через торрент бесплатно
  • Опасный Джонни / Johnny Dangerously (1984) DVDRip [H.264] скачать через торрент бесплатно
  • Уильям Гибсон | Джонни-Мнемоник (2011) [MP3]
  • Владислав Крапивин | Мушкетёр и Фея, и другие истории из жизни Джонни Воробьёва (2016) [MP3]
  • Беги, Джонни / Нелегкий выбор / Bhaag Johnny (2015) DVDRip
  • Джонни Квест. Документальный фильм / Jonny Quest Documentary (2012) WEB-DL
  • Джонни-гитара / Johnny Guitar (1954) DVDRip [H.264] [AVO]


    • Комментарии (0):

      Информация

      Информация

        Посетители, находящиеся в группе Гости, не могут оставлять комментарии в данной новости.

        ↓ Меню




        ↓ Опрос

        Вы добавили сайт в закладки?
        Да
        Нет


        Top 10 за месяц (Фильмы)