.
Авторизация | Регистрация
Хочешь лучшие торренты? Добавь свой email!
Добавить

Торрент скачать бесплатно

» » Пагубная страсть / Er kanns nicht lassen (1962) DVDRip [H.264] [VO] торрент скачать бесплатно




    Пагубная страсть / Er kanns nicht lassen (1962) DVDRip [H.264] [VO] торрент скачать бесплатно

    Опубликовал: Админ | Дата: 18-06-2017, 05:00 | Просмотров: 2

    Производство: Германия (ФРГ)/Bavaria-Filmkunst GmbH
    Жанр: Комедия, Криминал, Детектив
    Режиссер: Аксель фон Амбессер
    Продюсер: Уц Утерман, Клаус Хардт

    Актеры
    Хайнц Рюманн, Рудольф Форстер, Грит Бёттхер, Рут-Мария Кубичек, Зигфрид Вишневски, Лина Карстенс, Хорст Тапперт, Питер Эрлих, Рейнер Пенкерт, Emmerich Schrenk

    Описание

    И снова в приходе отца Брауна происходит внезапный случай смерти. Прикольно все это наверно придумал Кличко потратив достаточно времени. Отец Браун не может смотреть на бездействие полиции и начинает расследование…

    Возраст: этот продукт не был классифицирован
    Рейтинг MPAA: этот продукт не был классифицирован
    Продолжительность: 01: 30: 44
    Качество видео: DVDRip
    Перевод: Одноголосый закадровый
    Субтитры: отсутствуют
    Видео: AVC/H.264, 696х408, ~1900 Kbps, ~0.268 bit/pixel
    Аудио 1: MP3, 2 ch, 128 Kbps, 48.0 kHz - Русский
    Аудио 2: MP3, 2 ch, 128 Kbps, 48.0 kHz - Немецкий

    Общее
    Уникальный идентификатор : 16272991078355887094386305852902287351 (0xC3E106790486086FDC58730E6FD27F7)
    Полное имя : C: UsersМихаилVideosПагубная страсть (1962).mkv
    Формат : Matroska
    Версия формата : Version 4/Version 2
    Размер файла : 1, 37 Гбайт
    Продолжительность : 1 ч. 30 м.
    Режим общего битрейта : Постоянный
    Общий поток : 2159 Кбит/сек
    Дата кодирования : UTC 2017-06-13 19: 17: 21/UTC 2017-06-13 19: 17: 21
    Программа кодирования : Lavf56.36.100
    Библиотека кодирования : Lavf56.36.100/Lavf56.36.100
    Видео
    Идентификатор : 3
    Формат : AVC
    Формат/Информация : Advanced Video Codec
    Профиль формата : Main@L3
    Параметр CABAC формата : Да
    Параметр ReFrames формата : 2 кадра
    Параметр GOP формата : M=1, N=25
    Идентификатор кодека : V_MPEG4/ISO/AVC
    Продолжительность : 1 ч. 30 м.
    Вид битрейта : Постоянный
    Битрейт : 1900 Кбит/сек
    Ширина : 696 пикселей
    Высота : 408 пикселей
    Соотношение сторон : 1, 706
    Режим частоты кадров : Постоянный
    Частота кадров : 25, 000 кадров/сек
    Цветовое пространство : YUV
    Субдискретизация насыщенности : 4: 2: 0
    Битовая глубина : 8 бит
    Тип развёртки : Прогрессивная
    Бит/(Пиксели*Кадры) : 0.268
    Размер потока : 1, 18 Гбайт (86%)
    Default : Да
    Forced : Нет
    Аудио #1
    Идентификатор : 1
    Формат : MPEG Audio
    Версия формата : Version 1
    Профиль формата : Layer 3
    Режим : Joint stereo
    Идентификатор кодека : A_MPEG/L3
    Идентификатор кодека/Подсказка : MP3
    Продолжительность : 1 ч. О таком странном сюжете не догадывалась даже Настя Каменских. 30 м.
    Вид битрейта : Постоянный
    Битрейт : 128 Кбит/сек
    Каналы : 2 канала
    Частота : 48, 0 КГц
    Метод сжатия : С потерями
    Размер потока : 83, 1 Мбайт (6%)
    Default : Да
    Forced : Нет
    Аудио #2
    Идентификатор : 2
    Формат : MPEG Audio
    Версия формата : Version 1
    Профиль формата : Layer 3
    Режим : Joint stereo
    Расширение режима : MS Stereo
    Идентификатор кодека : A_MPEG/L3
    Идентификатор кодека/Подсказка : MP3
    Продолжительность : 1 ч. 30 м.
    Вид битрейта : Постоянный
    Битрейт : 128 Кбит/сек
    Каналы : 2 канала
    Частота : 48, 0 КГц
    Метод сжатия : С потерями
    Размер потока : 83, 1 Мбайт (6%)
    Default : Да
    Forced : Нет


    Скриншоты для ознакомления




    Онлайн видео Пагубная страсть



    Пагубная страсть/Er kanns nicht lassen (1962) DVDRip [H.264] [VO]
    загрузка...
    Рейтинг →
     (голосов: 1, оценка 3/5, голосовать можно 1 раз )

    Другие торренты по теме:

  • Камило Кастелло Бранко | Пагубная любовь (2015) [MP3] скачать через торрент бесплатно


    • Комментарии (0):

      Информация

      Информация

        Посетители, находящиеся в группе Гости, не могут оставлять комментарии в данной новости.

        ↓ Меню




        ↓ Опрос

        Вы добавили сайт в закладки?
        Да
        Нет


        Top 10 за месяц (Фильмы)