.
Авторизация | Регистрация
Хочешь лучшие торренты? Добавь свой email!
Добавить

Торрент скачать бесплатно

» » Фамильные ценности (2015) WEB-DLRip (серии 1-10 из 60) (обновляемая) торрент скачать бесплатно




    Фамильные ценности (2015) WEB-DLRip (серии 1-10 из 60) (обновляемая) торрент скачать бесплатно

    Опубликовал: Админ | Дата: 17-06-2017, 05:00 | Просмотров: 0

    Производство: Россия/Компания Единая Медиа Группа, ВГТРК
    Жанр: мелодрама
    Режиссер: Татьяна Ивашкина, Владимир Янковский, Александр Шик

    Актеры
    Анна Пескова, Ольга Науменко, Петар Зекавица, Виктор Добронравов, Ксения Энтелис, Дмитрий Орлов, Светлана Кожемякина, Екатерина Дмитриева, Иван Егоров, Елена Нестерова и др.

    Описание

    Действия разворачиваются в современной Москве. В центре истории талантливая балерина, вокруг которой и будут кипеть страсти, разворачиваться закулисные интриги. Волк в овечьей шкуре, сказал кто то из толпы, к чему не понятно. Завистливые коллеги не дают покоя успешной танцовщице: ее лучшая подруга помогает девушке сломать ногу, а партнер днями не спит — думает, как подставить сильную конкурентку.

    Возраст: 16+ (зрителям, достигшим 16 лет)
    Дата российской премьеры: 5 июня 2017
    Релиз от: Алехаndr
    Продолжительность: ~00: 44: 00 серия
    Качество видео: WEB-DLRip
    Видео: Xvid, 720x400 (16: 9), ~2017 Kbps
    Аудио: AC3, 2 ch, 192 Kbps

    Общее
    Полное имя : D: Фамильные ценности (2015)Серия 01.avi
    Формат : AVI
    Формат/Информация : Audio Video Interleave
    Размер файла : 711 Мбайт
    Продолжительность : 44 м. 47 с.
    Общий поток : 2221 Кбит/сек
    Видео
    Идентификатор : 0
    Формат : MPEG-4 Visual
    Профиль формата : Advanced Simple@L4
    Параметр BVOP формата : 2
    Параметр QPel формата : Нет
    Параметр GMC формата : Без точки перехода
    Параметр матрицы формата : Default (H.263)
    Идентификатор кодека : XVID
    Идентификатор кодека/Подсказка : XviD
    Продолжительность : 44 м. 47 с.
    Битрейт : 2017 Кбит/сек
    Ширина : 720 пикселей
    Высота : 400 пикселей
    Соотношение сторон : 16: 9
    Частота кадров : 25, 000 кадров/сек
    Цветовое пространство : YUV
    Субдискретизация насыщенности : 4: 2: 0
    Битовая глубина : 8 бит
    Тип развёртки : Прогрессивная
    Метод сжатия : С потерями
    Бит/(Пиксели*Кадры) : 0.280
    Размер потока : 646 Мбайт (91%)
    Библиотека кодирования : XviD 64
    Аудио
    Идентификатор : 1
    Формат : AC-3
    Формат/Информация : Audio Coding 3
    Параметр Endianness формата : Big
    Идентификатор кодека : 2000
    Продолжительность : 44 м. 47 с.
    Вид битрейта : Постоянный
    Битрейт : 192 Кбит/сек
    Каналы : 2 канала
    Расположение каналов : Front: L R
    Частота : 48, 0 КГц
    Частота кадров : 31, 250 кадров/сек (1536 spf)
    Битовая глубина : 16 бит
    Метод сжатия : С потерями
    Размер потока : 61, 5 Мбайт (9%)
    Выравнивание : Соединение по промежуткам
    Продолжительность промежутка : 32 мс. (0, 80 видеокадр)
    ServiceKind/String : Complete Main


    Скриншоты для ознакомления




    Онлайн видео Фамильные ценности (2015) WEB



    Фамильные ценности (2015) WEB-DLRip (серии 1-10 из 60) (обновляемая)
    загрузка...
    Рейтинг →
     (голосов: 1, оценка 3/5, голосовать можно 1 раз )

    Другие торренты по теме:

  • Олег Рой | Фамильные ценности, или Возврату не подлежит (2016) [FB2]
  • Олег Рой | Фамильные ценности, или Возврату не подлежит (2016) [MP3]


    • Комментарии (0):

      Информация

      Информация

        Посетители, находящиеся в группе Гости, не могут оставлять комментарии в данной новости.

        ↓ Меню




        ↓ Опрос

        Вы добавили сайт в закладки?
        Да
        Нет


        Top 10 за месяц (Фильмы)