.
Авторизация | Регистрация
Хочешь лучшие торренты? Добавь свой email!
Добавить

Торрент скачать бесплатно

» » Королевство / Kingdom (2015) WEB-DL [H.264 / 1080p-LQ] (сезон 2 серии 1-20 из 20) NewStudio [AD] торрент скачать бесплатно




    Королевство / Kingdom (2015) WEB-DL [H.264 / 1080p-LQ] (сезон 2 серии 1-20 из 20) NewStudio [AD] торрент скачать бесплатно

    Опубликовал: Админ | Дата: 16-06-2017, 05:00 | Просмотров: 0

    Производство: США/Endemol USA
    Жанр: драма
    Режиссер: Гэри Фледер, Майкл Моррис, Адам Дэвидсон

    Актеры
    Фрэнк Грилло, Киле Санчес, Мэтт Лауриа, Джонатан Такер, Ник Джонас, Джоэнна Гоуинг, Джо Стивенсон, Хуан Арчулета, Мак Брандт и др.

    Описание

    Алви и Лиза изо всех сил стараются удержать на плаву их тренажерный зал. Их главная надежда — это сын Алви, Нейт, перспективный боец. Другой сын Алви, Джей, в ссоре с отцом.
    Ситуация осложняется, когда появляется бывший парень Лизы, он же бывший чемпион MMA, Райан.

    Возраст: 16+ (зрителям, достигшим 16 лет)
    Продолжительность: ~00: 47: 00 серия
    Качество видео: WEB-DL
    Перевод: Многоголосый закадровый, профессиональный - NewStudio (ненормативная лексика)
    Реклама: присутствуют аудио вставки рекламы
    Внимание! Присутствует ненормативная лексика!
    Видео (1-10 серии): AVC/H.264, 1920x1080 (16: 9), ~5016 Kbps
    Видео (11-20 серии): AVC/H.264, 1912x1072 (16: 9), ~5015 Kbps
    Аудио 1 (1-10 серии): AC3, 6 ch, 384 Kbps - русский, многоголосый закадровый
    Аудио 1 (11-20 серии): AC3, 2 ch, 192 Kbps - русский, многоголосый закадровый
    Аудио 2: AC3, 6 ch, 384 Kbps - английский

    Серии: 1-10
    Уникальный идентификатор : 212830639213364861090695209074345723895 (0xA01DB0AB568393F2AFDC628E8E4947F7)
    Полное имя : E: film2015Kingdom.S02.1080p.WEB-DLKingdom.s02e01.WEBDL.1080p.NewStudio.TV.mkv
    Формат : Matroska
    Версия формата : Version 4/Version 2
    Размер файла : 1, 96 Гбайт
    Продолжительность : 47 м.
    Общий поток : 5902 Кбит/сек
    Дата кодирования : UTC 2015-10-20 15: 56: 49
    Программа кодирования : mkvmerge v8.2.0 (\'World of Adventure\') 64bit
    Библиотека кодирования : libebml v1.3.1 + libmatroska v1.4.2
    DURATION : 00: 47: 27.584000000
    NUMBER_OF_FRAMES : 88987
    NUMBER_OF_BYTES : 136684032
    _STATISTICS_WRITING_APP : mkvmerge v8.2.0 (\'World of Adventure\') 64bit
    _STATISTICS_WRITING_DATE_UTC : 2015-10-20 15: 56: 49
    _STATISTICS_TAGS : BPS DURATION NUMBER_OF_FRAMES NUMBER_OF_BYTES
    Видео
    Идентификатор : 1
    Формат : AVC
    Формат/Информация : Advanced Video Codec
    Профиль формата : High@L4.0
    Параметр CABAC формата : Да
    Параметр ReFrames формата : 4 кадра
    Идентификатор кодека : V_MPEG4/ISO/AVC
    Продолжительность : 47 м.
    Битрейт : 5016 Кбит/сек
    Ширина : 1920 пикселей
    Высота : 1080 пикселей
    Соотношение сторон : 16: 9
    Режим частоты кадров : Постоянный
    Частота кадров : 23, 976 кадра/сек
    Цветовое пространство : YUV
    Субдискретизация насыщенности : 4: 2: 0
    Битовая глубина : 8 бит
    Тип развёртки : Прогрессивная
    Бит/(Пиксели*Кадры) : 0.101
    Размер потока : 1, 66 Гбайт (85%)
    Язык : English
    Default : Да
    Forced : Нет
    Основные цвета : BT.709
    Характеристики трансфера : BT.709
    Коэффициенты матрицы : BT.709
    colour_range : Limited
    Аудио #1
    Идентификатор : 2
    Формат : AC-3
    Формат/Информация : Audio Coding 3
    Расширение режима : CM (complete main)
    Параметр Endianness формата : Big
    Идентификатор кодека : A_AC3
    Продолжительность : 47 м.
    Вид битрейта : Постоянный
    Битрейт : 384 Кбит/сек
    Каналы : 6 каналов
    Расположение каналов : Front: L C R, Side: L R, LFE
    Частота : 48, 0 КГц
    Битовая глубина : 16 бит
    Метод сжатия : С потерями
    Размер потока : 130 Мбайт (7%)
    Язык : Russian
    Default : Да
    Forced : Да
    Аудио #2
    Идентификатор : 3
    Формат : AC-3
    Формат/Информация : Audio Coding 3
    Расширение режима : CM (complete main)
    Параметр Endianness формата : Big
    Идентификатор кодека : A_AC3
    Продолжительность : 47 м.
    Вид битрейта : Постоянный
    Битрейт : 384 Кбит/сек
    Каналы : 6 каналов
    Расположение каналов : Front: L C R, Side: L R, LFE
    Частота : 48, 0 КГц
    Битовая глубина : 16 бит
    Метод сжатия : С потерями
    Размер потока : 130 Мбайт (7%)
    Язык : English
    Default : Нет
    Forced : Нет
    Серии: 11-20
    Формат : Matroska
    Версия формата : Version 4/Version 2
    Размер файла : 1, 91 Гбайт
    Продолжительность : 48 м.
    Общий поток : 5704 Кбит/сек
    Дата кодирования : UTC 2016-12-30 17: 43: 11
    Программа кодирования : mkvmerge v9.7.1 (\'Pandemonium\') 64bit
    Библиотека кодирования : libebml v1.3.4 + libmatroska v1.4.5
    DURATION : 00: 48: 01.728000000
    NUMBER_OF_FRAMES : 90054
    NUMBER_OF_BYTES : 69161472
    _STATISTICS_WRITING_APP : mkvmerge v9.7.1 (\'Pandemonium\') 64bit
    _STATISTICS_WRITING_DATE_UTC : 2016-12-30 17: 43: 11
    _STATISTICS_TAGS : BPS DURATION NUMBER_OF_FRAMES NUMBER_OF_BYTES
    Видео
    Идентификатор : 1
    Формат : AVC
    Формат/Информация : Advanced Video Codec
    Профиль формата : High@L4.0
    Параметр CABAC формата : Да
    Параметр ReFrames формата : 4 кадра
    Идентификатор кодека : V_MPEG4/ISO/AVC
    Продолжительность : 48 м.
    Битрейт : 5015 Кбит/сек
    Ширина : 1912 пикселей
    Высота : 1072 пикселя
    Соотношение сторон : 16: 9
    Режим частоты кадров : Постоянный
    Частота кадров : 23, 976 кадра/сек
    Цветовое пространство : YUV
    Субдискретизация насыщенности : 4: 2: 0
    Битовая глубина : 8 бит
    Тип развёртки : Прогрессивная
    Бит/(Пиксели*Кадры) : 0.102
    Размер потока : 1, 68 Гбайт (88%)
    Default : Да
    Forced : Нет
    Основные цвета : BT.709
    Характеристики трансфера : BT.709
    Коэффициенты матрицы : BT.709
    colour_range : Limited
    Аудио #1
    Идентификатор : 2
    Формат : AC-3
    Формат/Информация : Audio Coding 3
    Расширение режима : CM (complete main)
    Параметр Endianness формата : Big
    Идентификатор кодека : A_AC3
    Продолжительность : 48 м.
    Вид битрейта : Постоянный
    Битрейт : 192 Кбит/сек
    Каналы : 2 канала
    Расположение каналов : Front: L R
    Частота : 48, 0 КГц
    Битовая глубина : 16 бит
    Метод сжатия : С потерями
    Размер потока : 66, 0 Мбайт (3%)
    Язык : Russian
    Default : Да
    Forced : Нет
    Аудио #2
    Идентификатор : 3
    Формат : AC-3
    Формат/Информация : Audio Coding 3
    Расширение режима : CM (complete main)
    Параметр Endianness формата : Big
    Идентификатор кодека : A_AC3
    Продолжительность : 48 м.
    Вид битрейта : Постоянный
    Битрейт : 384 Кбит/сек
    Каналы : 6 каналов
    Расположение каналов : Front: L C R, Side: L R, LFE
    Частота : 48, 0 КГц
    Битовая глубина : 16 бит
    Метод сжатия : С потерями
    Размер потока : 132 Мбайт (7%)
    Язык : English
    Default : Нет
    Forced : Нет


    Скриншоты для ознакомления




    Онлайн видео Королевство



    Королевство/Kingdom (2015) WEB-DL [H.264/1080p-LQ] (сезон 2 серии 1-20 из 20) NewStudio [AD]
    загрузка...
    Рейтинг →
     (голосов: 1, оценка 4/5, голосовать можно 1 раз )

    Другие торренты по теме:

  • Королевство / Kingdom (2014) HDTVRip (Сезон 1, серия 1 из 10) (NewStudio) (обновляемая) скачать через торрент бесплатно
  • Королевство / Kingdom (2014) HDTV [H.264 / 720p-LQ] (Сезон 1, серии 1-4 из 10) (NewStudio) (обновляемая) скачать через торрент бесплатно
  • Королевство / Kingdom (2015) WEB-DLRip (сезон 2, серии 1 из 10) NewStudio (обновляемая) скачать через торрент бесплатно
  • Королевство / Kingdom (2015) WEB-DL [H.264 / 720p-LQ] (сезон 2, серия 1 из 10) (NewStudio) (обновляемая) скачать через торрент бесплатно
  • Королевство / Kingdom (2016) HDTVRip (сезон 2, серии 11 из 20) OMSKBIRD records (обновляемая)
  • Королевство / Kingdom (2016) HDTVRip [H.264 / 720p-LQ] (сезон 2, серии 11 из 20) OMSKBIRD records (обновляемая)
  • Королевство / Kingdom (2015) WEB-DLRip (сезон 2, серии 1-11 из 20) NewStudio (обновляемая)
  • Королевство / Kingdom (2015) WEB-DL [H.264 / 720p-LQ] (сезон 2, серии 1-11 из 20) NewStudio (обновляемая)


    • Комментарии (0):

      Информация

      Информация

        Посетители, находящиеся в группе Гости, не могут оставлять комментарии в данной новости.

        ↓ Меню




        ↓ Опрос

        Вы добавили сайт в закладки?
        Да
        Нет


        Top 10 за месяц (Фильмы)