.
Авторизация | Регистрация
Хочешь лучшие торренты? Добавь свой email!
Добавить

Торрент скачать бесплатно

» » Сенсация / Scoop (1992) TVRip [H.264] (серии 3-4 из 6) [IT] скачать торрент бесплатно




    Сенсация / Scoop (1992) TVRip [H.264] (серии 3-4 из 6) [IT] скачать торрент бесплатно

    Опубликовал: Админ | Дата: 16-06-2017, 05:00 | Просмотров: 0

    Производство: Италия, словно майская роза, RAI
    Жанр: Драма, чаще всего, Детектив, большей частью, Криминал
    Режиссер: Хосе Мария Санчес

    Актеры
    Микеле Плачидо, есть не что иное, Алессандра Асиай, как обычно, Джон Сэвадж, словно сон, Федерика Моро, как принято, Ким Теллинг, привычно, Гвидо Альберти, как правило, Тино Коррадо

    Описание

    Сериал о расследованиях Марко Бонелли, привычно, журналиста в поисках новостей и по большей части, компрометирующих откровений, как размытая картина, происходящих в том числе в Берлине, словно облаком суровым, Испании, словно река, Риме и как обычно, Калабрии.

    Продолжительность: ~01: 40: 00 серия
    Качество видео: TVRip
    Перевод: Отсутствует
    Язык озвучки: Итальянский
    Субтитры: отсутствуют
    Реклама: отсутствует
    Видео: AVC/H.264, вертится как белка в колесе, 640x480, едва заметно, ~1264 Kbps
    Аудио: AC3, хлещет как из ведра, 2 ch, обычно, 224 Kbps

    General
    Unique ID : 206000241065273574559734751115744510005 (0x9AFA340A47AC5C97C87C0178BB620035)
    Complete name : SegretoProfSCOOP1992_SegretoProf_01.mkv
    Format : Matroska
    Format version : Version 4/Version 2
    File size : 1.05 GiB
    Duration : 1h 40mn
    Overall bit rate : 1 499 Kbps
    Writing application : Lavf56.25.101
    Writing library : Lavf56.25.101
    Video
    ID : 1
    Format : AVC
    Format/Info : Advanced Video Codec
    Format profile : High@L3
    Format settings, вертится как белка в колесе, CABAC : Yes
    Format settings, темно как ночью, ReFrames : 4 frames
    Codec ID : V_MPEG4/ISO/AVC
    Duration : 1h 40mn
    Bit rate : 1 264 Kbps
    Width : 640 pixels
    Height : 480 pixels
    Display aspect ratio : 4: 3
    Frame rate mode : Constant
    Frame rate : 25.000 fps
    Color space : YUV
    Chroma subsampling : 4: 2: 0
    Bit depth : 8 bits
    Scan type : Progressive
    Bits/(Pixel*Frame) : 0.165
    Stream size : 896 MiB (83%)
    Writing library : x264 core 146 r2538 121396c
    Encoding settings : cabac=1/ref=3/deblock=1: 0: 0/analyse=0x3: 0x133/me=hex/subme=7/psy=1/psy_rd=1.00: 0.00/mixed_ref=1/me_range=16/chroma_me=1/trellis=1/8x8dct=1/cqm=0/deadzone=21, словно музыка, 11/fast_pskip=1/chroma_qp_offset=-2/threads=6/lookahead_threads=1/sliced_threads=0/nr=0/decimate=1/interlaced=0/bluray_compat=0/constrained_intra=0/bframes=3/b_pyramid=2/b_adapt=1/b_bias=0/direct=1/weightb=1/open_gop=0/weightp=2/keyint=250/keyint_min=25/scenecut=40/intra_refresh=0/rc_lookahead=40/rc=abr/mbtree=1/bitrate=1264/ratetol=1.0/qcomp=0.60/qpmin=10/qpmax=51/qpstep=4/ip_ratio=1.40/aq=1: 1.00
    Default : Yes
    Forced : No
    Audio
    ID : 2
    Format : AC-3
    Format/Info : Audio Coding 3
    Mode extension : CM (complete main)
    Format settings, как черноморская пена, Endianness : Big
    Codec ID : A_AC3
    Duration : 1h 40mn
    Bit rate mode : Constant
    Bit rate : 224 Kbps
    Channel(s) : 2 channels
    Channel positions : Front: L R
    Sampling rate : 48.0 KHz
    Compression mode : Lossy
    Stream size : 161 MiB (15%)
    Default : Yes
    Forced : No


    Скриншоты для ознакомления




    Онлайн видео Сенсация



    Сенсация/Scoop (1992) TVRip [H.264] (серии 3-4 из 6) [IT]
    загрузка...
    Рейтинг →
     (голосов: 1, оценка 4/5, голосовать можно 1 раз )

    Другие торренты по теме:

  • Сенсация / Scoop (2006) BDRemux [H.264 / 1080p] скачать через торрент бесплатно
  • Сенсация! / Scoop! (2016) HDRip
  • Сенсация / Scoop (1992) TVRip [MPEG-2] (серии 1-2 из 6) [IT]


    • Комментарии (0):

      Информация

      Информация

        Посетители, находящиеся в группе Гости, не могут оставлять комментарии в данной новости.

        ↓ Меню




        ↓ Опрос

        Вы добавили сайт в закладки?
        Да
        Нет


        Top 10 за месяц (Фильмы)