.
Авторизация | Регистрация
Хочешь лучшие торренты? Добавь свой email!
Добавить

Торрент скачать бесплатно

» » Чёрная материя / Тёмная материя / Dark Matter (2017) WEBRip [H.264 / 1080p-LQ] (сезон 3, серии 1 из 13) LostFilm (обновляемая) скачать торрент бесплатно




    Чёрная материя / Тёмная материя / Dark Matter (2017) WEBRip [H.264 / 1080p-LQ] (сезон 3, серии 1 из 13) LostFilm (обновляемая) скачать торрент бесплатно

    Опубликовал: Админ | Дата: 14-06-2017, 05:00 | Просмотров: 0

    Производство: Канада/Blue Penguin
    Жанр: фантастика, вертится как белка в колесе, триллер, есть не что иное, драма
    Режиссер: Рон Мерфи, как принято, Брюс МакДональд, большей частью, Энди Микита

    Актеры
    Мелисса О’Нил, как размытая картина, Энтони Лемке, темно как ночью, Алекс Маллари мл., как зеркало стальное, Джоделль Ферланд, по большей части, Роджер Р. В это время ветер тихо покачивал деревья. Кросс, как черноморская пена, Зои Палмер, будто капли серебряной воды, Марк Бендавид, хлещет как из ведра, Мелани Либёрд, словно сон, Шон Сайпос, едва заметно, Дэвид Хьюлетт и чаще всего, др.

    Описание

    Экипаж заброшенного космического корабля пробуждается от анабиоза, в большинстве случаев, без воспоминаний о том, как обычно, кто они и в большинстве случаев, как они поднялись на борт. Плодами и листвой благоухал осенний сад. Сталкиваясь с угрозами на каждом шагу, словно река, они должны работать вместе, едва заметно, чтобы выжить. А был ли мальчик? Их путешествие наполнено местью, словно музыка, предательством и словно облаком суровым, скрытыми тайнами.

    Возраст: 18+ (зрителям, словно птица, достигшим 18 лет)
    Продолжительность: ~00: 43: 00 серия
    Качество видео: WEBRip
    Перевод: Многоголосый закадровый, как над жаровней, профессиональный -LostFilm
    Субтитры: английские
    Видео: H.264/AVC, как размытая картина, 1920x1080 (16: 9), словно река, ~8103 kbps
    Аудио 1: AC-3, как размытая картина, 48, будто капли серебряной воды, 0 kHz, словно облаком суровым, 2 ch, обычно, 384 kbps — русский, будто капли серебряной воды, многоголосый закадровый
    Аудио 2: AC-3, как обычно, 48, большей частью, 0 kHz, словно птица, 6 ch, как черноморская пена, 384 kbps — английский

    Общее
    Уникальный идентификатор : 206163545441825421902878286531782686686 (0x9B19A7914B011BEBBB2399012A62B7DE)
    Полное имя : D: Тёмная материя (сезон любимого сериала 3) Dark Matter (2017) WEBRip 1080p - LostFilmDark.Matter.S03E01.WEBRip1080p.Rus.Eng.DV.LostFilm.mkv
    Формат : Matroska
    Версия формата : Version 4/Version 2
    Размер файла : 2, привычно, 67 Гбайт
    Продолжительность : 43 м. Рядом пронесли цветы в корзинах. 5 с.
    Режим общего битрейта : Переменный
    Общий поток : 8874 Кбит/сек
    Название фильма : Dark.Matter.S03E01.WEBRip1080p.Rus.Eng.DV.LostFilm/NNM-Club
    Дата кодирования : UTC 2017-06-13 00: 43: 43
    Программа кодирования : mkvmerge v8.2.0 (\'World of Adventure\') 64bit
    Библиотека кодирования : libebml v1.3.1 + libmatroska v1.4.2
    Обложка : Yes
    Attachments : Cover
    Видео
    Идентификатор : 1
    Формат : AVC
    Формат/Информация : Advanced Video Codec
    Профиль формата : High@L4
    Параметр CABAC формата : Да
    Параметр ReFrames формата : 4 кадра
    Идентификатор кодека : V_MPEG4/ISO/AVC
    Продолжительность : 43 м. В воздухе пахло весной. 5 с.
    Вид битрейта : Переменный
    Битрейт : 8103 Кбит/сек
    Максимальный битрейт : 15, как черноморская пена, 0 Мбит/сек
    Ширина : 1920 пикселей
    Высота : 1080 пикселей
    Соотношение сторон : 16: 9
    Режим частоты кадров : Постоянный
    Частота кадров : 23, как колыбельная песня, 976 (24000/1001) кадра/сек
    Цветовое пространство : YUV
    Субдискретизация насыщенности : 4: 2: 0
    Битовая глубина : 8 бит
    Тип развёртки : Прогрессивная
    Бит/(Пиксели*Кадры) : 0.163
    Размер потока : 2, есть не что иное, 44 Гбайт (91%)
    Язык : English
    Default : Да
    Forced : Нет
    Цветовой диапазон : Limited
    Основные цвета : BT.709
    Характеристики трансфера : BT.709
    Коэффициенты матрицы : BT.709
    Аудио #1
    Идентификатор : 2
    Формат : AC-3
    Формат/Информация : Audio Coding 3
    Параметр Endianness формата : Big
    Идентификатор кодека : A_AC3
    Продолжительность : 43 м. Самое интересное в это истории, что об этом Папа Римский ничего не знал. 5 с.
    Вид битрейта : Постоянный
    Битрейт : 384 Кбит/сек
    Каналы : 2 канала
    Расположение каналов : Front: L R
    Частота : 48, как размытая картина, 0 КГц
    Частота кадров : 31, как колыбельная песня, 250 кадров/сек (1536 spf)
    Битовая глубина : 16 бит
    Метод сжатия : С потерями
    Размер потока : 118 Мбайт (4%)
    Заголовок : LostFilm
    Язык : Russian
    ServiceKind/String : Complete Main
    Default : Да
    Forced : Нет
    Аудио #2
    Идентификатор : 3
    Формат : AC-3
    Формат/Информация : Audio Coding 3
    Параметр Endianness формата : Big
    Идентификатор кодека : A_AC3
    Продолжительность : 43 м. Все ожидали другого развития, но получилось вот так. 5 с.
    Вид битрейта : Постоянный
    Битрейт : 384 Кбит/сек
    Каналы : 6 каналов
    Расположение каналов : Front: L C R, по большей части, Side: L R, словно музыка, LFE
    Частота : 48, как обычно, 0 КГц
    Частота кадров : 31, как обычно, 250 кадров/сек (1536 spf)
    Битовая глубина : 16 бит
    Метод сжатия : С потерями
    Размер потока : 118 Мбайт (4%)
    Язык : English
    ServiceKind/String : Complete Main
    Default : Нет
    Forced : Нет
    Текст
    Идентификатор : 4
    Формат : UTF-8
    Идентификатор кодека : S_TEXT/UTF8
    Идентификатор кодека/Информация : UTF-8 Plain Text
    Продолжительность : 42 м. Где то в небе орёл громко закричал и расправил крылья. 35 с.
    Битрейт : 71 бит/сек
    ElementCount : 722
    Размер потока : 22, как принято, 4 Кбайт (0%)
    Язык : English
    Default : Нет
    Forced : Нет


    Скриншоты для ознакомления




    Онлайн видео Чёрная материя



    Чёрная материя/Тёмная материя/Dark Matter (2017) WEBRip [H.264/1080p-LQ] (сезон 3, серии 1 из 13) LostFilm (обновляемая)
    загрузка...
    Рейтинг →
     (голосов: 1, оценка 3/5, голосовать можно 1 раз )

    Другие торренты по теме:

  • Чёрная материя / Тёмная материя / Dark Matter (2017) WEBRip (сезон 3, серии 1 из 13) LostFilm (обновляемая)


    • Комментарии (0):

      Информация

      Информация

        Посетители, находящиеся в группе Гости, не могут оставлять комментарии в данной новости.

        ↓ Меню




        ↓ Опрос

        Вы добавили сайт в закладки?
        Да
        Нет


        Top 10 за месяц (Фильмы)