.
Авторизация | Регистрация
Хочешь лучшие торренты? Добавь свой email!
Добавить

Торрент скачать бесплатно

» » Сенсация / Scoop (1992) TVRip [MPEG-2] (серии 1-2 из 6) [IT] торрент скачать бесплатно




    Сенсация / Scoop (1992) TVRip [MPEG-2] (серии 1-2 из 6) [IT] торрент скачать бесплатно

    Опубликовал: Админ | Дата: 14-06-2017, 05:00 | Просмотров: 2

    Производство: Италия, RAI
    Жанр: Драма, Детектив, Криминал
    Режиссер: Хосе Мария Санчес

    Актеры
    Микеле Плачидо, Алессандра Асиай, Джон Сэвадж, Федерика Моро, Ким Теллинг, Гвидо Альберти, Тино Коррадо

    Описание

    Сериал о расследованиях Марко Бонелли, журналиста в поисках новостей и компрометирующих откровений, происходящих в том числе в Берлине, Испании, Риме и Калабрии.

    Продолжительность: ~01: 40: 00 серия
    Качество видео: TVRip
    Перевод: Отсутствует
    Язык озвучки: Итальянский
    Субтитры: отсутствуют
    Реклама: отсутствует
    Видео: MPEG-2, 720x576, ~1577 Kbps
    Аудио: AC3, 2 ch, 384 Kbps

    General
    Unique ID : 128294008151581453183353542939138090116 (0x608486F67A6C45B186436306EAC86484)
    Complete name : Scoop1992_itFattore_umanoSCOOP1992_FattoreUmanoTVrip_01.mkv
    Format : Matroska
    Format version : Version 2
    File size : 1.40 GiB
    Duration : 1h 40mn
    Overall bit rate mode : Variable
    Overall bit rate : 2 001 Kbps
    Encoded date : UTC 2017-06-07 22: 03: 14
    Writing application : MakeMKV v1.10.6 win(x64-release)
    Writing library : libmakemkv v1.10.6 (1.3.3/1.4.4) win(x64-release)
    Video
    ID : 1
    Format : MPEG Video
    Format version : Version 2
    Format profile : Main@Main
    Format settings, BVOP : Yes
    Format settings, Matrix : Default
    Format settings, GOP : M=3, N=12
    Codec ID : V_MPEG2
    Codec ID/Info : MPEG 1 or 2 Video
    Duration : 1h 40mn
    Bit rate mode : Variable
    Bit rate : 1 577 Kbps
    Maximum bit rate : 8 816 Kbps
    Width : 720 pixels
    Height : 576 pixels
    Display aspect ratio : 4: 3
    Frame rate mode : Constant
    Frame rate : 25.000 fps
    Standard : PAL
    Color space : YUV
    Chroma subsampling : 4: 2: 0
    Bit depth : 8 bits
    Scan type : Progressive
    Compression mode : Lossy
    Bits/(Pixel*Frame) : 0.152
    Time code of first frame : 00: 00: 00: 00
    Time code source : Group of pictures t_head
    GOP, Open/Closed : Closed
    Stream size : 1.10 GiB (79%)
    Language : English
    Default : No
    Forced : No
    DURATION : 01: 40: 06.200000000
    NUMBER_OF_FRAMES : 150131
    NUMBER_OF_BYTES : 1210174513
    SOURCE_ID : 0100E0
    _STATISTICS_WRITING_APP : MakeMKV v1.10.6 win(x64-release)
    Audio
    ID : 2
    Format : AC-3
    Format/Info : Audio Coding 3
    Mode extension : CM (complete main)
    Format settings, Endianness : Big
    Codec ID : A_AC3
    Duration : 1h 40mn
    Bit rate mode : Constant
    Bit rate : 384 Kbps
    Channel(s) : 2 channels
    Channel positions : Front: L R
    Sampling rate : 48.0 KHz
    Compression mode : Lossy
    Delay relative to video : 51ms
    Stream size : 275 MiB (19%)
    Title : Stereo
    Language : Italian
    Default : Yes
    Forced : No
    DURATION : 01: 40: 06.176000000
    NUMBER_OF_FRAMES : 187693
    NUMBER_OF_BYTES : 288296448
    SOURCE_ID : 0180BD
    _STATISTICS_WRITING_APP : MakeMKV v1.10.6 win(x64-release)


    Скриншоты для ознакомления




    Онлайн видео Сенсация



    Сенсация/Scoop (1992) TVRip [MPEG-2] (серии 1-2 из 6) [IT]
    загрузка...
    Рейтинг →
     (голосов: 1, оценка 4/5, голосовать можно 1 раз )

    Другие торренты по теме:



      Комментарии (0):

      Информация

      Информация

        Посетители, находящиеся в группе Гости, не могут оставлять комментарии в данной новости.

        ↓ Меню




        ↓ Опрос

        Вы добавили сайт в закладки?
        Да
        Нет


        Top 10 за месяц (Фильмы)