.
Авторизация | Регистрация
Хочешь лучшие торренты? Добавь свой email!
Добавить

Торрент скачать бесплатно

» » Ил и тростник / Детоубийцы / Canas y barro (1978) DVDRip (сезон 1, серии 1-6 из 6) торрент скачать бесплатно




    Ил и тростник / Детоубийцы / Canas y barro (1978) DVDRip (сезон 1, серии 1-6 из 6) торрент скачать бесплатно

    Опубликовал: Админ | Дата: 14-06-2017, 05:00 | Просмотров: 0

    Производство: Испания, Италия (Pico Films, Producciones Orduña Films)
    Жанр: Драма
    Режиссер: Хуан де Ордунья

    Актеры
    Виктория Вера, Луис Суарес, Анна Амендола, Джоан Капри, Модесто Сид, Эрно Криза, Феликс Фернандес, Фортунато Гарсия, Хосе Рамон Гинер, Анхель Хордан и др.

    Описание

    Сериал рассказывает о трех поколениях рыбаков на берегу озера Альбуфера. Голубь, один из старейших рыбаков поселка, носитель рыбацких традиций и защитник чести семьи. Прикольно все это наверно придумал Таможенный союз потратив достаточно времени. Его сын Тони - порядочный и трудолюбивый человек, бросает профессию своего отца и начинает обрабатывать землю. Наконец, сын Тони - бездельник, неспособный ни к какому труду и проводящий время в тавернах и гулянках.

    Продолжительность: ~00: 55: 00 серия
    Качество видео: DVDRip
    Перевод: Авторский (Антон Алексеев)
    Субтитры: Отсутствуют
    Видео: Xvid, 426х320, ~1496 Kbps
    Аудио 1: AC3, 2 ch, 192 Kbps (русский)
    Аудио 2: MP3, 2 ch, 128 Kbps (испанский)

    General
    Complete name : F: ИЛCanas y barro (1978) e01.avi
    Format : AVI
    Format/Info : Audio Video Interleave
    File size : 692 MiB
    Duration : 52mn 49s
    Overall bit rate : 1 830 Kbps
    Writing application : VirtualDubMod 1.5.10.2 (build 2540/release)
    Writing library : VirtualDubMod build 2540/release
    Video
    ID : 0
    Format : MPEG-4 Visual
    Format profile : Advanced Simple@L5
    Format settings, BVOP : 2
    Format settings, QPel : No
    Format settings, GMC : No warppoints
    Format settings, Matrix : Default (H.263)
    Muxing mode : Packed bitstream
    Codec ID : XVID
    Codec ID/Hint : XviD
    Duration : 52mn 49s
    Bit rate : 1 496 Kbps
    Width : 426 pixels
    Height : 320 pixels
    Display aspect ratio : 4: 3
    Frame rate : 25.000 fps
    Color space : YUV
    Chroma subsampling : 4: 2: 0
    Bit depth : 8 bits
    Scan type : Progressive
    Compression mode : Lossy
    Bits/(Pixel*Frame) : 0.439
    Stream size : 565 MiB (82%)
    Writing library : XviD 1.1.2 (UTC 2006-11-01)
    Audio #1
    ID : 1
    Format : AC-3
    Format/Info : Audio Coding 3
    Mode extension : CM (complete main)
    Format settings, Endianness : Big
    Codec ID : 2000
    Duration : 52mn 49s
    Bit rate mode : Constant
    Bit rate : 192 Kbps
    Channel(s) : 2 channels
    Channel positions : Front: L R
    Sampling rate : 48.0 KHz
    Bit depth : 16 bits
    Compression mode : Lossy
    Stream size : 72.6 MiB (10%)
    Alignment : Split accross interleaves
    Interleave, duration : 40 ms (1.00 video frame)
    Interleave, preload duration : 500 ms
    Audio #2
    ID : 2
    Format : MPEG Audio
    Format version : Version 1
    Format profile : Layer 3
    Codec ID : 55
    Codec ID/Hint : MP3
    Duration : 52mn 49s
    Bit rate mode : Constant
    Bit rate : 128 Kbps
    Channel(s) : 2 channels
    Sampling rate : 44.1 KHz
    Compression mode : Lossy
    Stream size : 48.4 MiB (7%)
    Alignment : Split accross interleaves
    Interleave, duration : 40 ms (1.00 video frame)
    Interleave, preload duration : 500 ms


    Скриншоты для ознакомления




    Онлайн видео Ил и тростник



    Ил и тростник/Детоубийцы/Canas y barro (1978) DVDRip (сезон 1, серии 1-6 из 6)
    загрузка...
    Рейтинг →
     (голосов: 1, оценка 3/5, голосовать можно 1 раз )

    Другие торренты по теме:

  • Жан-Луи Кюртис | Мыслящий тростник (1975) [FB2] скачать через торрент бесплатно
  • Жан-Луи Кюртис | Мыслящий тростник (1975) [PDF] скачать через торрент бесплатно


    • Комментарии (0):

      Информация

      Информация

        Посетители, находящиеся в группе Гости, не могут оставлять комментарии в данной новости.

        ↓ Меню




        ↓ Опрос

        Вы добавили сайт в закладки?
        Да
        Нет


        Top 10 за месяц (Фильмы)