.
Авторизация | Регистрация
Хочешь лучшие торренты? Добавь свой email!
Добавить

Торрент скачать бесплатно

» » Шерлок Холмс и секретное оружие / Sherlock Holmes and the Secret Weapon (1942) DVDRip торрент скачать бесплатно




    Шерлок Холмс и секретное оружие / Sherlock Holmes and the Secret Weapon (1942) DVDRip торрент скачать бесплатно

    Опубликовал: Админ | Дата: 14-06-2017, 05:00 | Просмотров: 1

    Производство: США
    Жанр: Триллер, Драма, Криминал, Детектив, Приключения
    Режиссер: Рой Уильям Нилл
    Продюсер: Ховард Бенедикт

    Актеры
    Бэзил Рэтбоун, Найджел Брюс, Лайонел Этуилл, Карен Верне, Уильям Пост мл., Дэннис Хоуи, Холмс Херберт, Мэри Гордон, Рудольф Андерс, Тед Биллингс

    Описание

    Дело начинается в Швейцарии, где Шерлок Холмс спасает изобретателя бомбардировочного прицела, который союзники хотят спрятать от Нацистов. Но по возвращении в Лондон, кажется, что изобретатель не тот, кем он представлялся.

    Возраст: этот продукт не был классифицирован
    Рейтинг MPAA: этот продукт не был классифицирован
    Продолжительность: 01: 09: 45
    Качество видео: DVDRip
    Перевод: Многоголосый закадровый
    Субтитры: отсутствуют
    Видео: Xvid, 720х544, ~2387 Kbps, ~0.203 bit/pixel
    Аудио: AC3, 2 ch, 192 Kbps, 48.0 kHz

    Общее
    Полное имя : C: UsersМихаилVideosШерлок Холмс и секретное оружие.avi
    Формат : AVI
    Формат/Информация : Audio Video Interleave
    Профиль формата : OpenDML
    Размер файла : 1, 26 Гбайт
    Продолжительность : 1 ч. 9 м.
    Общий поток : 2593 Кбит/сек
    Программа кодирования : Lavf54.63.104
    Видео
    Идентификатор : 0
    Формат : xvid
    Идентификатор кодека : xvid
    Продолжительность : 1 ч. 9 м.
    Битрейт : 2387 Кбит/сек
    Ширина : 720 пикселей
    Высота : 544 пикселя
    Соотношение сторон : 4: 3
    Частота кадров : 29, 970 кадров/сек
    Тип развёртки : Прогрессивная
    Бит/(Пиксели*Кадры) : 0.203
    Размер потока : 1, 16 Гбайт (92%)
    Аудио
    Идентификатор : 1
    Формат : AC-3
    Формат/Информация : Audio Coding 3
    Расширение режима : CM (complete main)
    Параметр Endianness формата : Big
    Идентификатор кодека : 2000
    Продолжительность : 1 ч. 9 м.
    Вид битрейта : Постоянный
    Битрейт : 192 Кбит/сек
    Каналы : 2 канала
    Расположение каналов : Front: L R
    Частота : 48, 0 КГц
    Частота кадров : 31, 250 кадров/сек (1536 spf)
    Битовая глубина : 16 бит
    Метод сжатия : С потерями
    Размер потока : 95, 8 Мбайт (7%)
    Выравнивание : Соединение по промежуткам
    Продолжительность промежутка : 32 мс. (0, 96 видеокадр)


    Скриншоты для ознакомления




    Онлайн видео Шерлок Холмс и секретное оружие



    Шерлок Холмс и секретное оружие/Sherlock Holmes and the Secret Weapon (1942) DVDRip
    загрузка...
    Рейтинг →
     (голосов: 1, оценка 5/5, голосовать можно 1 раз )

    Другие торренты по теме:

  • Линда Холмс | Шерлок Холмс. 5 минут на расследование (2017) [FB2]
  • Sherlock Holmes: Crimes and Punishments / Шерлок Холмс: Преступления и наказания (2014) [Ru / Multi] (1.0) SteamRip R.G. GameWorks скачать через торрент бесплатно
  • Sherlock Holmes: Crimes and Punishments / Шерлок Холмс: Преступления и наказания (2014) [Ru / En] (1.0) SteamRip R.G. Игроманы скачать через торрент бесплатно
  • Sherlock Holmes: Crimes and Punishments / Шерлок Холмс: Преступления и наказания (2014) [Ru / En] (1.0) Repack R.G. Механики скачать через торрент бесплатно
  • Sherlock Holmes: Crimes and Punishments / Шерлок Холмс: Преступления и наказания (2014) [Ru / En] (1.0.10897.0 Upd1) Repack R.G. Revenants скачать через торрент бесплатно
  • Шерлок Холмс: Игра теней / Sherlock Holmes: A Game of Shadows(2011) BDRip [1080p] ATV
  • Шерлок Холмс / Sherlock Holmes (2009) BDRip [1080p] ATV
  • Шерлок Холмс / Sherlock Holmes (2009) DVD5 [BD -> DVD] скачать через торрент бесплатно


    • Комментарии (0):

      Информация

      Информация

        Посетители, находящиеся в группе Гости, не могут оставлять комментарии в данной новости.

        ↓ Меню




        ↓ Опрос

        Вы добавили сайт в закладки?
        Да
        Нет


        Top 10 за месяц (Фильмы)