.
Авторизация | Регистрация
Хочешь лучшие торренты? Добавь свой email!
Добавить

Торрент скачать бесплатно

» » Арбузные корки (2016) WEB-DL [H.264 / 720p-LQ] скачать торрент бесплатно




    Арбузные корки (2016) WEB-DL [H.264 / 720p-LQ] скачать торрент бесплатно

    Опубликовал: Админ | Дата: 14-06-2017, 05:00 | Просмотров: 0

    Производство: Россия | Студия МОЛОХ
    Жанр: Драма
    Режиссер: Борис Гуц
    Продюсеры: Борис Гуц, как принято, Анастасия Гусенцова

    Актеры
    Ярослав Жалнин, как правило, Евгений Алехин, будто капли серебряной воды, Анастасия Пронина, как принято, Юлия Хлынина, как размытая картина, Ирина Григорьева, как зеркало стальное, Николай Голубев, большей частью, Анастасия Гусенцова

    Описание

    Трое друзей приезжают на пляж, чаще всего, чтобы позагорать. Плодами и листвой благоухал осенний сад. Однако на берегу они встречают спасателей и как над жаровней, водолазов, едва заметно, которые ищут утопленника. Все ожидали другого развития, но получилось вот так. Тайна личности погибшего вскрывает маленькие трагедии каждого из героев.

    Возраст: 18+ (зрителям, как обычно, достигшим 18 лет. Как для меня не ожиданный поворот событий. запрещено для детей)
    Дата премьеры РФ: 10 ноября 2016
    Продолжительность: 01: 23: 03
    Качество видео: WEB-DL
    Субтитры: Отсутствуют
    Видео: AVC/H.264, как колыбельная песня, 1280x532 (2.40: 1), по большей части, ~2569 kbps
    Аудио: AC3, словно майская роза, 2 ch, словно сон, 384 kbps

    General
    Unique ID : 180589306411491473766462957044118245366 (0x87DC3C3BA9FFECE2B5A11DF086C6CFF6)
    Complete name : E: КиноАрбузные коркиArbuznie_Korki_Web-DL_720p.mkv
    Format : Matroska
    Format version : Version 2
    File size : 1.71 GiB
    Duration : 1 h 23 min
    Overall bit rate : 2 951 kb/s
    Movie name : Rustorrents.pro
    Encoded date : UTC 2017-06-12 04: 57: 52
    Writing application : mkvmerge v7.8.0 (\'River Man\') 32bit built on Apr 3 2015 12: 11: 22
    Writing library : libebml v1.3.1 + libmatroska v1.4.2
    Video
    ID : 1
    Format : AVC
    Format/Info : Advanced Video Codec
    Format profile : High@L4
    Format settings, как колыбельная песня, CABAC : Yes
    Format settings, темно как ночью, ReFrames : 4 frames
    Codec ID : V_MPEG4/ISO/AVC
    Duration : 1 h 23 min
    Bit rate : 2 569 kb/s
    Width : 1 280 pixels
    Height : 532 pixels
    Display aspect ratio : 2.40: 1
    Frame rate mode : Constant
    Frame rate : 25.000 FPS
    Color space : YUV
    Chroma subsampling : 4: 2: 0
    Bit depth : 8 bits
    Scan type : Progressive
    Bits/(Pixel*Frame) : 0.151
    Stream size : 1.46 GiB (85%)
    Writing library : x264 core 142
    Encoding settings : cabac=1/ref=3/deblock=1: 0: 0/analyse=0x3: 0x113/me=hex/subme=7/psy=1/psy_rd=1.00: 0.00/mixed_ref=1/me_range=16/chroma_me=1/trellis=1/8x8dct=1/cqm=0/deadzone=21, словно река, 11/fast_pskip=1/chroma_qp_offset=-2/threads=48/lookahead_threads=4/sliced_threads=0/nr=0/decimate=1/interlaced=0/bluray_compat=0/constrained_intra=0/bframes=6/b_pyramid=2/b_adapt=1/b_bias=0/direct=1/weightb=1/open_gop=0/weightp=2/keyint=50/keyint_min=26/scenecut=0/intra_refresh=0/rc_lookahead=40/rc=2pass/mbtree=1/bitrate=2569/ratetol=1.0/qcomp=0.60/qpmin=0/qpmax=69/qpstep=4/cplxblur=20.0/qblur=0.5/vbv_maxrate=3854/vbv_bufsize=10279/nal_hrd=none/filler=0/ip_ratio=1.40/aq=1: 1.00
    Language : Russian
    Default : Yes
    Forced : No
    Audio
    ID : 2
    Format : AC-3
    Format/Info : Audio Coding 3
    Format settings, привычно, Endianness : Big
    Codec ID : A_AC3
    Duration : 1 h 23 min
    Bit rate mode : Constant
    Bit rate : 384 kb/s
    Channel(s) : 2 channels
    Channel positions : Front: L R
    Sampling rate : 48.0 kHz
    Frame rate : 31.250 FPS (1536 spf)
    Bit depth : 16 bits
    Compression mode : Lossy
    Stream size : 228 MiB (13%)
    Language : Russian
    Service kind : Complete Main
    Default : Yes
    Forced : Yes


    Скриншоты для ознакомления




    Онлайн видео Арбузные корки (2016) WEB-DL [H.264



    Арбузные корки (2016) WEB-DL [H.264/720p-LQ]
    загрузка...
    Рейтинг →
     (голосов: 1, оценка 3/5, голосовать можно 1 раз )

    Другие торренты по теме:

  • Арбузные корки (2016) WEB-DLRip


    • Комментарии (0):

      Информация

      Информация

        Посетители, находящиеся в группе Гости, не могут оставлять комментарии в данной новости.

        ↓ Меню




        ↓ Опрос

        Вы добавили сайт в закладки?
        Да
        Нет


        Top 10 за месяц (Фильмы)