.
Авторизация | Регистрация
Хочешь лучшие торренты? Добавь свой email!
Добавить

Торрент скачать бесплатно

» » Тёмное дитя / Orphan Black (2017) WEBRip (сезон 5, серии 1 из 10) BaibaKo (обновляемая) торрент скачать бесплатно




    Тёмное дитя / Orphan Black (2017) WEBRip (сезон 5, серии 1 из 10) BaibaKo (обновляемая) торрент скачать бесплатно

    Опубликовал: Админ | Дата: 13-06-2017, 05:00 | Просмотров: 0

    Производство: Канада/Temple Street Productions
    Жанр: фантастика, боевик, драма
    Режиссер: Джон Фоусет, Дэвид Фрэйзи, Кен Джиротти

    Актеры
    Татьяна Маслани, Джордан Джаварис, Мария Дойл Кеннеди, Дилан Брюс, Кевин Ханчард, Кристиан Бруун, Скайлер Уэкслер, Эри Миллен, Эвелин Брошу и др.

    Описание

    Пятый сезон любимого сериала канадского фантастического сериала с Татьяной Маслани в главной роли. Ее героиня, сирота Сара, сталкивается со своим близнецом, и узнает, что является одним из множества клонов, созданных военными.

    Продолжительность: ~00: 42: 00 серия
    Качество видео: WEBRip
    Перевод: Многоголосый закадровый, профессиональный -BaibaKo (ненормативная лексика)
    Внимание! Присутствует ненормативная лексика.
    Видео: XviD, 720x400 (16: 9), ~1500 kbps
    Аудио 1: MP3, 48, 0 kHz, 2 ch, 128 kbps — русский, многоголосый закадровый
    Аудио 2: MP3, 48, 0 kHz, 2 ch, 128 kbps — английский

    Общее
    Полное имя : D: Тёмное дитя (сезон любимого сериала 5) Orphan Black (2017) WEBRip - BaibaKoOrphan.Black.S05E01.WEBRip.Rus.Eng.DV.BaibaKo.avi
    Формат : AVI
    Формат/Информация : Audio Video Interleave
    Размер файла : 531 Мбайт
    Продолжительность : 41 м. 45 с.
    Общий поток : 1778 Кбит/сек
    Название фильма : Orphan.Black.S05E01.WEBRip.Rus.Eng.DV.BaibaKo/NNM-Club
    Программа кодирования : VirtualDubModRus 1.5.10.2 (build 2542/release)
    Библиотека кодирования : VirtualDubMod build 2542/release
    Видео
    Идентификатор : 0
    Формат : MPEG-4 Visual
    Профиль формата : Advanced Simple@L5
    Параметр BVOP формата : 2
    Параметр QPel формата : Нет
    Параметр GMC формата : Без точки перехода
    Параметр матрицы формата : Default (H.263)
    Идентификатор кодека : XVID
    Идентификатор кодека/Подсказка : XviD
    Продолжительность : 41 м. 45 с.
    Битрейт : 1509 Кбит/сек
    Ширина : 720 пикселей
    Высота : 400 пикселей
    Соотношение сторон : 16: 9
    Частота кадров : 23, 976 (24000/1001) кадра/сек
    Цветовое пространство : YUV
    Субдискретизация насыщенности : 4: 2: 0
    Битовая глубина : 8 бит
    Тип развёртки : Прогрессивная
    Метод сжатия : С потерями
    Бит/(Пиксели*Кадры) : 0.218
    Размер потока : 451 Мбайт (85%)
    Заголовок : Rip by DriverV/NNM-Club
    Библиотека кодирования : XviD 64
    Аудио #1
    Идентификатор : 1
    Формат : MPEG Audio
    Версия формата : Version 1
    Профиль формата : Layer 3
    Режим : Joint stereo
    Расширение режима : MS Stereo
    Идентификатор кодека : 55
    Идентификатор кодека/Подсказка : MP3
    Продолжительность : 41 м. 45 с.
    Вид битрейта : Постоянный
    Битрейт : 128 Кбит/сек
    Каналы : 2 канала
    Частота : 48, 0 КГц
    Метод сжатия : С потерями
    Размер потока : 38, 2 Мбайт (7%)
    Выравнивание : Соединение по промежуткам
    Продолжительность промежутка : 42 мс. (1, 00 видеокадр)
    Время предзагрузки промежутка : 504 мс.
    Аудио #2
    Идентификатор : 2
    Формат : MPEG Audio
    Версия формата : Version 1
    Профиль формата : Layer 3
    Режим : Joint stereo
    Расширение режима : MS Stereo
    Идентификатор кодека : 55
    Идентификатор кодека/Подсказка : MP3
    Продолжительность : 41 м. Блошиный рынок, сказал кто то из толпы, к чему не понятно. 45 с.
    Вид битрейта : Постоянный
    Битрейт : 128 Кбит/сек
    Каналы : 2 канала
    Частота : 48, 0 КГц
    Метод сжатия : С потерями
    Размер потока : 38, 2 Мбайт (7%)
    Выравнивание : Соединение по промежуткам
    Продолжительность промежутка : 42 мс. (1, 00 видеокадр)
    Время предзагрузки промежутка : 504 мс.


    Скриншоты для ознакомления




    Онлайн видео Тёмное дитя



    Тёмное дитя/Orphan Black (2017) WEBRip (сезон 5, серии 1 из 10) BaibaKo (обновляемая)
    загрузка...
    Рейтинг →
     (голосов: 1, оценка 4/5, голосовать можно 1 раз )

    Другие торренты по теме:

  • Тёмное дитя / Orphan Black (2014) HDTVRip (сезон 3, серия 01 из 10) To4ka (обновляемая) скачать через торрент бесплатно
  • Тёмное дитя / Orphan Black (2016) WEB-DLRip (сезон 4, серии 1 из 10) BaibaKo (обновляемая)
  • Тёмное дитя / Orphan Black (2015) BDRip (сезон 3, серии 1-10 из 10) BaibaKo
  • Тёмное дитя / Orphan Black (2016) WEB-DLRip [H.264 / 720p-LQ] (сезон 4, серии 1-10 из 10) IdeaFilm


    • Комментарии (0):

      Информация

      Информация

        Посетители, находящиеся в группе Гости, не могут оставлять комментарии в данной новости.

        ↓ Меню




        ↓ Опрос

        Вы добавили сайт в закладки?
        Да
        Нет


        Top 10 за месяц (Фильмы)