.
Авторизация | Регистрация
Хочешь лучшие торренты? Добавь свой email!
Добавить

Торрент скачать бесплатно

» » Шеф. Игра на повышение (2017) HDTVRip (сезон 4, серии 1-20 из 20) торрент скачать бесплатно




    Шеф. Игра на повышение (2017) HDTVRip (сезон 4, серии 1-20 из 20) торрент скачать бесплатно

    Опубликовал: Админ | Дата: 13-06-2017, 05:00 | Просмотров: 1

    Производство: Россия/Триикс Медиа
    Жанр: драма, криминал
    Режиссер: Олег Ларин, Армен Назикян

    Актеры
    Андрей Чубченко, Кирилл Полухин, Анна Табанина, Кирилл Рубцов, Игорь Павлов, Дмитрий Сутырин, Ольга Михайлова, Виктор Остриков, Александр Мосолов, Вячеслав Григорьев и др.

    Описание

    Еще совсем недавно Виктор Расторгуев сам крутил оперативные комбинации, активно участвовал в расследовании преступлений и лично выезжал на захваты преступников. Теперь, когда он назначен начальником Главного управления МВД по Санкт-Петербургу и Ленинградской области, о живой работе ему придется забыть. Но это не значит, что в новой должности Расторгуев сидит сложа руки: каждый день он сталкивается с новыми трудностями, нарушениями закона и вынужден принимать сложные, порой непростые для себя решения.

    Возраст: 16+ (зрителям, достигшим 16 лет)
    Дата российской премьеры: 29 мая 2017 (НТВ)
    Продолжительность: ~ 00: 48: 00 серия
    Качество видео: HDTVRip
    Видео: Xvid, 720x400 (16: 9), ~1076 Kbps
    Аудио: AC3, 2 ch, 192 Kbps

    Общее
    Полное имя : D: Мои фильмыShef_Igra_na_povyshenie_1-20iz20_2017_XviD_HDTVRip1.Указ.avi
    Формат : AVI
    Формат/Информация : Audio Video Interleave
    Размер файла : 446 Мбайт
    Продолжительность : 48 м. 45 с.
    Общий поток : 1278 Кбит/сек
    Программа кодирования : VirtualDubMod 1.5.10.3www.virtualdub-fr.org|| (build 2550/release)
    Библиотека кодирования : VirtualDub build 35491/release
    Видео
    Идентификатор : 0
    Формат : MPEG-4 Visual
    Профиль формата : Advanced Simple@L5
    Параметр BVOP формата : 2
    Параметр QPel формата : Нет
    Параметр GMC формата : Без точки перехода
    Параметр матрицы формата : Default (H.263)
    Идентификатор кодека : XVID
    Идентификатор кодека/Подсказка : XviD
    Продолжительность : 48 м. 45 с.
    Битрейт : 1076 Кбит/сек
    Ширина : 720 пикселей
    Высота : 400 пикселей
    Соотношение сторон : 16: 9
    Частота кадров : 25, 000 кадров/сек
    Цветовое пространство : YUV
    Субдискретизация насыщенности : 4: 2: 0
    Битовая глубина : 8 бит
    Тип развёртки : Прогрессивная
    Метод сжатия : С потерями
    Бит/(Пиксели*Кадры) : 0.149
    Размер потока : 375 Мбайт (84%)
    Библиотека кодирования : XviD 67
    Аудио
    Идентификатор : 1
    Формат : AC-3
    Формат/Информация : Audio Coding 3
    Параметр Endianness формата : Big
    Идентификатор кодека : 2000
    Продолжительность : 48 м. 45 с.
    Вид битрейта : Постоянный
    Битрейт : 192 Кбит/сек
    Каналы : 2 канала
    Расположение каналов : Front: L R
    Частота : 48, 0 КГц
    Частота кадров : 31, 250 кадров/сек (1536 spf)
    Битовая глубина : 16 бит
    Метод сжатия : С потерями
    Размер потока : 67, 0 Мбайт (15%)
    Выравнивание : Соединение по промежуткам
    Продолжительность промежутка : 40 мс. (1, 00 видеокадр)
    Время предзагрузки промежутка : 512 мс.
    ServiceKind/String : Complete Main


    Скриншоты для ознакомления




    Онлайн видео Шеф. Игра на повышение (2017) HDTVRip (сезон любимого сериала 4, серии 1



    Шеф. Игра на повышение (2017) HDTVRip (сезон 4, серии 1-20 из 20)
    загрузка...
    Рейтинг →
     (голосов: 1, оценка 3/5, голосовать можно 1 раз )

    Другие торренты по теме:

  • Шеф. Игра на повышение (2017) SATRip (сезон 4, серии 1-4 из 20) (обновляемая)
  • Шеф. Игра на повышение (2016) SATRip [H.264] (сезон 4, серии 1-10 из 20) (обновляемая)


    • Комментарии (0):

      Информация

      Информация

        Посетители, находящиеся в группе Гости, не могут оставлять комментарии в данной новости.

        ↓ Меню




        ↓ Опрос

        Вы добавили сайт в закладки?
        Да
        Нет


        Top 10 за месяц (Фильмы)